INFO

INFO
File Name...........: James Bond 50th Anniversary Edition (1962-2012) [23 Discs] Blu-ray CEE 1080p AVC DTS 5.1 975 GB
IMDB................: Dr. No (1962) - IMDb
IMDB................: From Russia with Love (1963) - IMDb
IMDB................: Goldfinger (1964) - IMDb
IMDB................: Thunderball (1965) - IMDb
IMDB................: You Only Live Twice (1967) - IMDb
IMDB................: On Her Majesty's Secret Service (1969) - IMDb
IMDB................: Diamonds Are Forever (1971) - IMDb
IMDB................: Live and Let Die (1973) - IMDb
IMDB................: The Man with the Golden Gun (1974) - IMDb
IMDB................: The Spy Who Loved Me (1977) - IMDb
IMDB................: Moonraker (1979) - IMDb
IMDB................: For Your Eyes Only (1981) - IMDb
IMDB................: Octopussy (1983) - IMDb
IMDB................: A View to a Kill (1985) - IMDb
IMDB................: The Living Daylights (1987) - IMDb
IMDB................: Licence to Kill (1989) - IMDb
IMDB................: GoldenEye (1995) - IMDb
IMDB................: Tomorrow Never Dies (1997) - IMDb
IMDB................: The World Is Not Enough (1999) - IMDb
IMDB................: Die Another Day (2002) - IMDb
IMDB................: Casino Royale (2006) - IMDb
IMDB................: Quantum of Solace (2008) - IMDb
IMDB................: http://www.imdb.com/title/tt1074638/
Trailers............: James Bond 50th Anniversary Blu-Ray Collection Trailer Official 2012 [HD] - YouTube

Rar Information.....: 2GB PARTS | NO PASSWORD | INTERCHANGEABLE | RECOVERY VOLUMES %5
Upload Host.........: VIP | FileFactory | Redbunker | RapidGator





Private Download / Ozel Uyelik
This file is avaible in our servers; To download this file without fear of deleting please become VIP member.(Please Click the picture.)
Bu dosya serverlarimiz da mevcut, asla silinmeyen dosyalari yuksek hizda indirmek icin VIP uyelik aliniz.(VIP icin resme tiklayiniz.)




** External content visible to Registered Users only.Sadece Uyeler Gorebilir.**





** External content visible to Registered Users only.Sadece Uyeler Gorebilir.**





** External content visible to Registered Users only.Sadece Uyeler Gorebilir.**






























James Bond: Dr. No (1962) Blu-ray 1080p AVC DTS 5.1

DISC INFO:

Disc Title: DRNO_F6
Disc Size: 43 586 291 765 bytes
Protection: AACS
BD-Java: Yes
BDInfo: 0.5.6

PLAYLIST REPORT:

Name: 00001.MPLS
Length: 1:49:50 (h:m:s)
Size: 29 932 253 184 bytes
Total Bitrate: 36,33 Mbps

(*) Indicates included stream hidden by this playlist.

VIDEO:

Codec Bitrate Description
----- ------- -----------
MPEG-4 AVC Video 29312 kbps 1080p / 23,976 fps / 16:9 / High Profile 4.1

AUDIO:

Codec Language Bitrate Description
----- -------- ------- -----------
DTS-HD Master Audio English 3050 kbps 5.1 / 48 kHz / 3050 kbps / 24-bit (DTS Core: 5.1 / 48 kHz / 1509 kbps / 24-bit)
* DTS Audio Japanese 768 kbps 5.1 / 48 kHz / 768 kbps / 16-bit
DTS Audio Russian 768 kbps 5.1 / 48 kHz / 768 kbps / 16-bit
Dolby Digital Audio English 224 kbps 2.0 / 48 kHz / 224 kbps / DN -4dB

SUBTITLES:

Codec Language Bitrate Description
----- -------- ------- -----------
Presentation Graphics English 30,265 kbps
* Presentation Graphics Japanese 15,593 kbps
* Presentation Graphics Japanese 0,091 kbps
* Presentation Graphics Japanese 44,237 kbps
Presentation Graphics Russian 30,414 kbps
Presentation Graphics Russian 0,224 kbps
Presentation Graphics Russian 61,788 kbps
Presentation Graphics Ukrainian 23,185 kbps

James Bond: From Russia with Love (1963) Blu-ray 1080p AVC DTS 5.1
DISC INFO:

Disc Size: 41 202 439 912 bytes
Protection: AACS
BD-Java: Yes
BDInfo: 0.5.6

PLAYLIST REPORT:

Name: 00001.MPLS
Length: 1:55:12 (h:m:s)
Size: 29 554 089 984 bytes
Total Bitrate: 34,20 Mbps

(*) Indicates included stream hidden by this playlist.

VIDEO:

Codec Bitrate Description
----- ------- -----------
MPEG-4 AVC Video 26529 kbps 1080p / 23,976 fps / 16:9 / High Profile 4.1

AUDIO:

Codec Language Bitrate Description
----- -------- ------- -----------
DTS-HD Master Audio English 3801 kbps 5.1 / 48 kHz / 3801 kbps / 24-bit (DTS Core: 5.1 / 48 kHz / 1509 kbps / 24-bit)
* DTS Audio Japanese 768 kbps 5.1 / 48 kHz / 768 kbps / 24-bit
DTS Audio Russian 768 kbps 5.1 / 48 kHz / 768 kbps / 16-bit
Dolby Digital Audio English 224 kbps 2.0 / 48 kHz / 224 kbps / DN -4dB

SUBTITLES:

Codec Language Bitrate Description
----- -------- ------- -----------
Presentation Graphics English 25,125 kbps
* Presentation Graphics Japanese 14,255 kbps
* Presentation Graphics Japanese 0,390 kbps
* Presentation Graphics Japanese 40,733 kbps
Presentation Graphics Russian 25,082 kbps
Presentation Graphics Russian 0,000 kbps
Presentation Graphics Russian 67,108 kbps
Presentation Graphics Ukrainian 22,860 kbps

James Bond: Goldfinger (1964) Blu-ray CEE 1080p AVC DTS 5.1

DISC INFO:

Disc Size: 48 325 099 317 bytes
Protection: AACS
BD-Java: Yes
BDInfo: 0.5.6

PLAYLIST REPORT:

Name: 00001.MPLS
Length: 1:50:01 (h:m:s)
Size: 32 308 895 424 bytes
Total Bitrate: 39,16 Mbps

VIDEO:

Codec Bitrate Description
----- ------- -----------
MPEG-4 AVC Video 29231 kbps 1080p / 23,976 fps / 16:9 / High Profile 4.1

AUDIO:

Codec Language Bitrate Description
----- -------- ------- -----------
DTS-HD High-Res Audio English 3018 kbps 5.1 / 48 kHz / 3018 kbps / 24-bit (DTS Core: 5.1 / 48 kHz / 1509 kbps / 24-bit)
DTS Audio Italian 768 kbps 5.1 / 48 kHz / 768 kbps / 24-bit
DTS Audio Russian 768 kbps 5.1 / 48 kHz / 768 kbps / 24-bit
DTS Audio Spanish 768 kbps 5.1 / 48 kHz / 768 kbps / 24-bit
Dolby Digital Audio Hungarian 448 kbps 5.1 / 48 kHz / 448 kbps / DN -4dB
Dolby Digital Audio Polish 448 kbps 5.1 / 48 kHz / 448 kbps / DN -4dB
Dolby Digital Audio English 224 kbps 2.0 / 48 kHz / 224 kbps / DN -4dB
Dolby Digital Audio English 224 kbps 2.0 / 48 kHz / 224 kbps / DN -4dB
Dolby Digital Audio Turkish 224 kbps 2.0 / 48 kHz / 224 kbps / DN -4dB

SUBTITLES:

Codec Language Bitrate Description
----- -------- ------- -----------
Presentation Graphics English 24,462 kbps
Presentation Graphics Arabic 12,604 kbps
Presentation Graphics Bulgarian 18,891 kbps
Presentation Graphics Croatian 22,643 kbps
Presentation Graphics Greek 27,303 kbps
Presentation Graphics Hebrew 14,569 kbps
Presentation Graphics Hindi 11,976 kbps
Presentation Graphics Hungarian 23,155 kbps
Presentation Graphics Hungarian 0,123 kbps
Presentation Graphics Icelandic 21,572 kbps
Presentation Graphics Italian 22,902 kbps
Presentation Graphics Italian 0,203 kbps
Presentation Graphics Italian 48,933 kbps
Presentation Graphics Italian 42,411 kbps
Presentation Graphics Polish 17,148 kbps
Presentation Graphics Polish 0,050 kbps
Presentation Graphics Portuguese 23,060 kbps
Presentation Graphics Portuguese 49,604 kbps
Presentation Graphics Portuguese 43,386 kbps
Presentation Graphics Romanian 20,835 kbps
Presentation Graphics Russian 19,498 kbps
Presentation Graphics Russian 0,025 kbps
Presentation Graphics Russian 49,144 kbps
Presentation Graphics Russian 41,953 kbps
Presentation Graphics Slovenian 17,249 kbps
Presentation Graphics Spanish 24,967 kbps
Presentation Graphics Spanish 0,230 kbps
Presentation Graphics Spanish 43,853 kbps
Presentation Graphics Spanish 39,997 kbps
Presentation Graphics Turkish 22,600 kbps
Presentation Graphics Turkish 0,204 kbps
Presentation Graphics Ukrainian 18,715 kbps

James Bond: Thunderball (1965) Blu-ray 1080p AVC DTS 5.1
DISC INFO:

Disc Size: 46 527 535 253 bytes
Protection: AACS
BD-Java: Yes
BDInfo: 0.5.6

PLAYLIST REPORT:

Name: 00001.MPLS
Length: 2:10:23 (h:m:s)
Size: 30 824 417 280 bytes
Total Bitrate: 31,52 Mbps

(*) Indicates included stream hidden by this playlist.

VIDEO:

Codec Bitrate Description
----- ------- -----------
MPEG-4 AVC Video 23191 kbps 1080p / 23,976 fps / 16:9 / High Profile 4.1

AUDIO:

Codec Language Bitrate Description
----- -------- ------- -----------
DTS-HD Master Audio English 3436 kbps 5.1 / 48 kHz / 3436 kbps / 24-bit (DTS Core: 5.1 / 48 kHz / 1509 kbps / 24-bit)
* DTS Audio Japanese 768 kbps 5.1 / 48 kHz / 768 kbps / 16-bit
DTS Audio Russian 768 kbps 5.1 / 48 kHz / 768 kbps / 24-bit
Dolby Digital Audio Thai 448 kbps 5.1 / 48 kHz / 448 kbps / DN -4dB
Dolby Digital Audio English 224 kbps 2.0 / 48 kHz / 224 kbps / DN -4dB
Dolby Digital Audio English 224 kbps 2.0 / 48 kHz / 224 kbps / DN -4dB

SUBTITLES:

Codec Language Bitrate Description
----- -------- ------- -----------
Presentation Graphics English 23,065 kbps
Presentation Graphics Chinese 18,735 kbps
Presentation Graphics Chinese 17,356 kbps
Presentation Graphics Chinese 57,872 kbps
Presentation Graphics Chinese 43,550 kbps
* Presentation Graphics Japanese 11,856 kbps
* Presentation Graphics Japanese 0,016 kbps
* Presentation Graphics Japanese 38,629 kbps
* Presentation Graphics Japanese 33,672 kbps
Presentation Graphics Korean 16,564 kbps
Presentation Graphics Korean 44,944 kbps
Presentation Graphics Korean 34,138 kbps
Presentation Graphics Russian 22,071 kbps
Presentation Graphics Russian 67,692 kbps
Presentation Graphics Russian 45,279 kbps
Presentation Graphics Russian 0,256 kbps
Presentation Graphics Thai 0,177 kbps
Presentation Graphics Thai 54,943 kbps
Presentation Graphics Thai 42,920 kbps
Presentation Graphics Thai 15,572 kbps
Presentation Graphics Ukrainian 21,220 kbps

James Bond: You Only Live Twice (1967) Blu-ray CEE 1080p AVC DTS 5.1-EbP
DISC INFO:

Disc Title: YOU ONLY LIVE TWICE
Disc Size: 48.917.760.363 bytes
Protection: AACS
BD-Java: Yes
BDInfo: 0.5.8

PLAYLIST REPORT:

Name: 00500.MPLS
Length: 1:56:58.261 (h:m:s.ms)
Size: 34.232.764.416 bytes
Total Bitrate: 39,02 Mbps

VIDEO:

Codec Bitrate Description
----- ------- -----------
MPEG-4 AVC Video 26993 kbps 1080p / 23,976 fps / 16:9 / High Profile 4.1

AUDIO:

Codec Language Bitrate Description
----- -------- ------- -----------
DTS Audio Japanese 768 kbps 5.1 / 48 kHz / 768 kbps / 24-bit
DTS Audio Spanish 768 kbps 5.1 / 48 kHz / 768 kbps / 24-bit / DN -2dB
DTS Audio Italian 768 kbps 5.1 / 48 kHz / 768 kbps / 24-bit
DTS Audio Russian 768 kbps 5.1 / 48 kHz / 768 kbps / 24-bit
Dolby Digital Audio Czech 448 kbps 5.1 / 48 kHz / 448 kbps
Dolby Digital Audio Hungarian 448 kbps 5.1 / 48 kHz / 448 kbps
Dolby Digital Audio Polish 448 kbps 5.1 / 48 kHz / 448 kbps
Dolby Digital Audio Thai 448 kbps 5.1 / 48 kHz / 448 kbps
Dolby Digital Audio English 224 kbps 2.0 / 48 kHz / 224 kbps
DTS-HD Master Audio English 3861 kbps 5.1 / 48 kHz / 3861 kbps / 24-bit (DTS Core: 5.1 / 48 kHz / 1509 kbps / 24-bit)

SUBTITLES:

Codec Language Bitrate Description
----- -------- ------- -----------
Presentation Graphics Japanese 11,976 kbps
Presentation Graphics English 21,634 kbps
Presentation Graphics Japanese 0,019 kbps
Presentation Graphics Spanish 23,189 kbps
Presentation Graphics Italian 21,754 kbps
Presentation Graphics Russian 22,266 kbps
Presentation Graphics Bulgarian 17,843 kbps
Presentation Graphics Chinese 15,651 kbps
Presentation Graphics Czech 22,556 kbps
Presentation Graphics Greek 25,592 kbps
Presentation Graphics Hebrew 13,926 kbps
Presentation Graphics Hungarian 19,257 kbps
Presentation Graphics Icelandic 18,699 kbps
Presentation Graphics Korean 11,882 kbps
Presentation Graphics Chinese 15,802 kbps
Presentation Graphics Polish 16,814 kbps
Presentation Graphics Portuguese 24,434 kbps
Presentation Graphics Romanian 19,251 kbps
Presentation Graphics Slovenian 17,659 kbps
Presentation Graphics Thai 15,297 kbps
Presentation Graphics Turkish 19,699 kbps
Presentation Graphics Japanese 38,162 kbps
Presentation Graphics Spanish 58,866 kbps
Presentation Graphics Italian 61,856 kbps
Presentation Graphics Korean 41,349 kbps
Presentation Graphics Chinese 50,346 kbps
Presentation Graphics Portuguese 62,469 kbps
Presentation Graphics Thai 53,421 kbps
Presentation Graphics Croatian 21,167 kbps

James Bond: On Her Majesty's Secret Service (1969) Blu-ray CEE 1080p AVC DTS 5.1-EbP
DISC INFO:

Disc Title: ON HER MAJESTY'S SCRT SRVC
Disc Size: 45.825.611.714 bytes
Protection: AACS
BD-Java: Yes
BDInfo: 0.5.8

PLAYLIST REPORT:

Name: 00500.MPLS
Length: 2:22:18.530 (h:m:s.ms)
Size: 37.856.894.976 bytes
Total Bitrate: 35,47 Mbps

VIDEO:

Codec Bitrate Description
----- ------- -----------
MPEG-4 AVC Video 23212 kbps 1080p / 23,976 fps / 16:9 / High Profile 4.1

AUDIO:

Codec Language Bitrate Description
----- -------- ------- -----------
DTS-HD Master Audio English 4163 kbps 5.1 / 48 kHz / 4163 kbps / 24-bit (DTS Core: 5.1 / 48 kHz / 1509 kbps / 24-bit)
DTS Audio Spanish 768 kbps 5.1 / 48 kHz / 768 kbps / 24-bit
DTS Audio Italian 768 kbps 5.1 / 48 kHz / 768 kbps / 24-bit
DTS Audio Japanese 768 kbps 5.1 / 48 kHz / 768 kbps / 24-bit
DTS Audio Russian 768 kbps 5.1 / 48 kHz / 768 kbps / 24-bit
Dolby Digital Audio Czech 448 kbps 5.1 / 48 kHz / 448 kbps
Dolby Digital Audio Hungarian 448 kbps 5.1 / 48 kHz / 448 kbps
Dolby Digital Audio Polish 448 kbps 5.1 / 48 kHz / 448 kbps
Dolby Digital Audio Thai 448 kbps 5.1 / 48 kHz / 448 kbps
Dolby Digital Audio English 224 kbps 2.0 / 48 kHz / 224 kbps

SUBTITLES:

Codec Language Bitrate Description
----- -------- ------- -----------
Presentation Graphics English 25,008 kbps
Presentation Graphics Spanish 25,115 kbps
Presentation Graphics Italian 23,717 kbps
Presentation Graphics Japanese 12,535 kbps
Presentation Graphics Japanese 0,044 kbps
Presentation Graphics Russian 24,951 kbps
Presentation Graphics Bulgarian 21,374 kbps
Presentation Graphics Chinese 18,554 kbps
Presentation Graphics Croatian 22,177 kbps
Presentation Graphics Czech 25,608 kbps
Presentation Graphics Greek 27,084 kbps
Presentation Graphics Hebrew 16,345 kbps
Presentation Graphics Hungarian 24,918 kbps
Presentation Graphics Icelandic 23,438 kbps
Presentation Graphics Indonesian 28,442 kbps
Presentation Graphics Korean 12,524 kbps
Presentation Graphics Chinese 18,663 kbps
Presentation Graphics Polish 18,776 kbps
Presentation Graphics Portuguese 24,231 kbps
Presentation Graphics Romanian 22,219 kbps
Presentation Graphics Slovenian 19,481 kbps
Presentation Graphics Thai 19,048 kbps
Presentation Graphics Turkish 24,192 kbps
Presentation Graphics Spanish 58,751 kbps
Presentation Graphics Italian 58,217 kbps
Presentation Graphics Japanese 39,729 kbps
Presentation Graphics Korean 40,407 kbps
Presentation Graphics Chinese 52,273 kbps
Presentation Graphics Portuguese 56,436 kbps
Presentation Graphics Thai 50,342 kbps

James Bond: Diamonds Are Forever (1971) Blu-ray CEE 1080p AVC DTS 5.1-EbP
DISC INFO:

Disc Title: DIAMONDS ARE FOREVER
Disc Size: 46.875.078.519 bytes
Protection: AACS
BD-Java: Yes
BDInfo: 0.5.8

PLAYLIST REPORT:

Name: 00500.MPLS
Length: 2:00:08.326 (h:m:s.ms)
Size: 39.264.909.312 bytes
Total Bitrate: 43,58 Mbps

VIDEO:

Codec Bitrate Description
----- ------- -----------
MPEG-4 AVC Video 31080 kbps 1080p / 23,976 fps / 16:9 / High Profile 4.1

AUDIO:

Codec Language Bitrate Description
----- -------- ------- -----------
DTS-HD Master Audio English 4061 kbps 5.1 / 48 kHz / 4061 kbps / 24-bit (DTS Core: 5.1 / 48 kHz / 1509 kbps / 24-bit)
DTS Audio Japanese 768 kbps 5.1 / 48 kHz / 768 kbps / 24-bit
DTS Audio Spanish 768 kbps 5.1 / 48 kHz / 768 kbps / 24-bit
DTS Audio Italian 768 kbps 5.1 / 48 kHz / 768 kbps / 24-bit
DTS Audio Russian 768 kbps 5.1 / 48 kHz / 768 kbps / 24-bit
Dolby Digital Audio Czech 448 kbps 5.1 / 48 kHz / 448 kbps
Dolby Digital Audio Hungarian 448 kbps 5.1 / 48 kHz / 448 kbps
Dolby Digital Audio Polish 448 kbps 5.1 / 48 kHz / 448 kbps
Dolby Digital Audio Thai 448 kbps 5.1 / 48 kHz / 448 kbps
Dolby Digital Audio English 224 kbps 2.0 / 48 kHz / 224 kbps

SUBTITLES:

Codec Language Bitrate Description
----- -------- ------- -----------
Presentation Graphics Japanese 17,024 kbps
Presentation Graphics English 28,073 kbps
Presentation Graphics Japanese 0,212 kbps
Presentation Graphics Spanish 29,268 kbps
Presentation Graphics Italian 27,590 kbps
Presentation Graphics Russian 28,935 kbps
Presentation Graphics Bulgarian 23,776 kbps
Presentation Graphics Chinese 20,201 kbps
Presentation Graphics Croatian 27,221 kbps
Presentation Graphics Czech 26,026 kbps
Presentation Graphics Hebrew 17,807 kbps
Presentation Graphics Hungarian 25,016 kbps
Presentation Graphics Icelandic 25,019 kbps
Presentation Graphics Indonesian 29,888 kbps
Presentation Graphics Korean 14,744 kbps
Presentation Graphics Greek 29,794 kbps
Presentation Graphics Chinese 22,144 kbps
Presentation Graphics Polish 28,118 kbps
Presentation Graphics Portuguese 25,897 kbps
Presentation Graphics Romanian 24,109 kbps
Presentation Graphics Slovenian 20,350 kbps
Presentation Graphics Thai 22,664 kbps
Presentation Graphics Turkish 24,159 kbps
Presentation Graphics Japanese 37,128 kbps
Presentation Graphics Spanish 56,033 kbps
Presentation Graphics Italian 58,295 kbps
Presentation Graphics Korean 39,826 kbps
Presentation Graphics Portuguese 56,796 kbps
Presentation Graphics Chinese 51,784 kbps

James Bond: Live and Let Die (1973) Blu-ray CEE 1080p AVC DTS 5.1
DISC INFO:

Disc Size: 44 437 976 097 bytes
Protection: AACS
BD-Java: Yes
BDInfo: 0.5.6

PLAYLIST REPORT:

Name: 00001.MPLS
Length: 2:01:38 (h:m:s)
Size: 35 327 148 288 bytes
Total Bitrate: 38,72 Mbps

(*) Indicates included stream hidden by this playlist.

VIDEO:

Codec Bitrate Description
----- ------- -----------
MPEG-4 AVC Video 29143 kbps 1080p / 23,976 fps / 16:9 / High Profile 4.1

AUDIO:

Codec Language Bitrate Description
----- -------- ------- -----------
DTS-HD Master Audio English 3631 kbps 5.1 / 48 kHz / 3631 kbps / 24-bit (DTS Core: 5.1 / 48 kHz / 1509 kbps / 24-bit)
* DTS Audio Japanese 768 kbps 5.1 / 48 kHz / 768 kbps / 16-bit
DTS Audio Russian 768 kbps 5.1 / 48 kHz / 768 kbps / 24-bit
Dolby Digital Audio Czech 448 kbps 5.1 / 48 kHz / 448 kbps / DN -4dB
Dolby Digital Audio Thai 448 kbps 5.1 / 48 kHz / 448 kbps / DN -4dB
Dolby Digital Audio English 224 kbps 2.0 / 48 kHz / 224 kbps / DN -4dB
Dolby Digital Audio English 224 kbps 2.0 / 48 kHz / 224 kbps / DN -4dB
Dolby Digital Audio English 224 kbps 2.0 / 48 kHz / 224 kbps / DN -4dB

SUBTITLES:

Codec Language Bitrate Description
----- -------- ------- -----------
Presentation Graphics English 22,299 kbps
Presentation Graphics Chinese 16,581 kbps
Presentation Graphics Chinese 15,929 kbps
Presentation Graphics Chinese 29,283 kbps
Presentation Graphics Chinese 46,628 kbps
Presentation Graphics Chinese 36,575 kbps
Presentation Graphics Czech 17,831 kbps
Presentation Graphics Czech 0,482 kbps
* Presentation Graphics Japanese 12,044 kbps
* Presentation Graphics Japanese 0,256 kbps
* Presentation Graphics Japanese 21,592 kbps
* Presentation Graphics Japanese 32,275 kbps
* Presentation Graphics Japanese 22,569 kbps
Presentation Graphics Korean 11,809 kbps
Presentation Graphics Korean 26,411 kbps
Presentation Graphics Korean 38,097 kbps
Presentation Graphics Korean 27,095 kbps
Presentation Graphics Russian 21,996 kbps
Presentation Graphics Russian 0,509 kbps
Presentation Graphics Russian 33,554 kbps
Presentation Graphics Russian 57,174 kbps
Presentation Graphics Russian 35,280 kbps
Presentation Graphics Thai 15,239 kbps
Presentation Graphics Thai 0,355 kbps
Presentation Graphics Thai 30,126 kbps
Presentation Graphics Thai 45,604 kbps
Presentation Graphics Thai 31,895 kbps
Presentation Graphics Ukrainian 21,722 kbps

James Bond: The Man with the Golden Gun (1974) Blu-ray CEE 1080p AVC DTS 5.1
DISC INFO:

Disc Title: MAN_WITH_GOLDEN_GUN_HDCLUB
Disc Size: 48 606 350 214 bytes
Protection: AACS
BD-Java: Yes
BDInfo: 0.5.8

PLAYLIST REPORT:

Name: 00001.MPLS
Length: 2:05:13.005 (h:m:s.ms)
Size: 34 670 579 712 bytes
Total Bitrate: 36,92 Mbps

VIDEO:

Codec Bitrate Description
----- ------- -----------
MPEG-4 AVC Video 27145 kbps 1080p / 23,976 fps / 16:9 / High Profile 4.1

AUDIO:

Codec Language Bitrate Description
----- -------- ------- -----------
DTS-HD High-Res Audio English 3018 kbps 5.1 / 48 kHz / 3018 kbps / 24-bit (DTS Core: 5.1 / 48 kHz / 1509 kbps / 24-bit)
DTS Audio Italian 768 kbps 5.1 / 48 kHz / 768 kbps / 24-bit
DTS Audio Spanish 768 kbps 5.1 / 48 kHz / 768 kbps / 24-bit
Dolby Digital Audio Polish 448 kbps 5.1 / 48 kHz / 448 kbps / DN -4dB
Dolby Digital Audio Hungarian 448 kbps 5.1 / 48 kHz / 448 kbps / DN -4dB
Dolby Digital Audio Turkish 224 kbps 2.0 / 48 kHz / 224 kbps / DN -4dB
Dolby Digital Audio English 224 kbps 2.0 / 48 kHz / 224 kbps / DN -4dB
Dolby Digital Audio English 224 kbps 2.0 / 48 kHz / 224 kbps / DN -4dB
DTS Audio Russian 768 kbps 5.1 / 48 kHz / 768 kbps / 24-bit

SUBTITLES:

Codec Language Bitrate Description
----- -------- ------- -----------
Presentation Graphics English 24,037 kbps
Presentation Graphics Italian 22,349 kbps
Presentation Graphics Italian 0,115 kbps
Presentation Graphics Spanish 23,796 kbps
Presentation Graphics Spanish 0,107 kbps
Presentation Graphics Polish 24,823 kbps
Presentation Graphics Polish 0,056 kbps
Presentation Graphics Hungarian 21,452 kbps
Presentation Graphics Hungarian 0,122 kbps
Presentation Graphics Turkish 23,528 kbps
Presentation Graphics Turkish 0,098 kbps
Presentation Graphics Portuguese 23,132 kbps
Presentation Graphics Arabic 12,667 kbps
Presentation Graphics Hebrew 15,080 kbps
Presentation Graphics Icelandic 19,841 kbps
Presentation Graphics Croatian 21,680 kbps
Presentation Graphics Romanian 20,382 kbps
Presentation Graphics Greek 25,178 kbps
Presentation Graphics Hindi 14,065 kbps
Presentation Graphics Bulgarian 18,454 kbps
Presentation Graphics Slovenian 17,878 kbps
Presentation Graphics Italian 43,826 kbps
Presentation Graphics Spanish 42,417 kbps
Presentation Graphics Portuguese 43,094 kbps
Presentation Graphics Italian 61,116 kbps
Presentation Graphics Spanish 60,333 kbps
Presentation Graphics Portuguese 61,008 kbps
Presentation Graphics Russian 25,950 kbps
Presentation Graphics Russian 0,070 kbps

FILES:

Name Time In Length Size Total Bitrate
---- ------- ------ ---- -------------
00041.M2TS 0:00:00.000 2:05:13.005 34 670 579 712 36 918

James Bond: The Spy Who Loved Me (1977) Blu-ray CEE 1080p AVC DTS 5.1-EbP
DISC INFO:

Disc Title: THE_SPY_WHO_LOVED_ME
Disc Size: 46.616.648.041 bytes
Protection: AACS
BD-Java: Yes
BDInfo: 0.5.8

PLAYLIST REPORT:

Name: 00600.MPLS
Length: 2:05:40.533 (h:m:s.ms)
Size: 37.242.789.888 bytes
Total Bitrate: 39,51 Mbps

VIDEO:

Codec Bitrate Description
----- ------- -----------
MPEG-4 AVC Video 27111 kbps 1080p / 23,976 fps / 16:9 / High Profile 4.1

AUDIO:

Codec Language Bitrate Description
----- -------- ------- -----------
DTS-HD Master Audio English 4141 kbps 5.1 / 48 kHz / 4141 kbps / 24-bit (DTS Core: 5.1 / 48 kHz / 1509 kbps / 24-bit)
DTS Audio Spanish 768 kbps 5.1 / 48 kHz / 768 kbps / 24-bit
DTS Audio Italian 768 kbps 5.1 / 48 kHz / 768 kbps / 24-bit
DTS Audio Japanese 768 kbps 5.1 / 48 kHz / 768 kbps / 24-bit
DTS Audio Russian 768 kbps 5.1 / 48 kHz / 768 kbps / 24-bit
Dolby Digital Audio Czech 448 kbps 5.1 / 48 kHz / 448 kbps
Dolby Digital Audio English 224 kbps 2.0 / 48 kHz / 224 kbps
Dolby Digital Audio English 224 kbps 2.0 / 48 kHz / 224 kbps
Dolby Digital Audio Hungarian 448 kbps 5.1 / 48 kHz / 448 kbps
Dolby Digital Audio Polish 448 kbps 5.1 / 48 kHz / 448 kbps
Dolby Digital Audio Thai 448 kbps 5.1 / 48 kHz / 448 kbps

SUBTITLES:

Codec Language Bitrate Description
----- -------- ------- -----------
Presentation Graphics English 19,586 kbps
Presentation Graphics Spanish 18,362 kbps
Presentation Graphics Italian 17,115 kbps
Presentation Graphics Japanese 10,801 kbps
Presentation Graphics Japanese 0,136 kbps
Presentation Graphics Russian 20,739 kbps
Presentation Graphics Bulgarian 16,878 kbps
Presentation Graphics Chinese 14,792 kbps
Presentation Graphics Croatian 18,888 kbps
Presentation Graphics Czech 18,545 kbps
Presentation Graphics Greek 18,919 kbps
Presentation Graphics Hebrew 12,529 kbps
Presentation Graphics Hungarian 17,038 kbps
Presentation Graphics Icelandic 16,944 kbps
Presentation Graphics Indonesian 22,089 kbps
Presentation Graphics Korean 9,813 kbps
Presentation Graphics Chinese 14,316 kbps
Presentation Graphics Polish 17,559 kbps
Presentation Graphics Portuguese 18,395 kbps
Presentation Graphics Romanian 17,148 kbps
Presentation Graphics Slovenian 15,767 kbps
Presentation Graphics Thai 13,925 kbps
Presentation Graphics Turkish 17,861 kbps
Presentation Graphics Spanish 42,344 kbps
Presentation Graphics Italian 42,239 kbps
Presentation Graphics Japanese 25,100 kbps
Presentation Graphics Korean 26,174 kbps
Presentation Graphics Chinese 32,664 kbps
Presentation Graphics Portuguese 43,097 kbps
Presentation Graphics Thai 31,883 kbps

James Bond: Moonraker (1979) Blu-ray CEE 1080p AVC DTS 5.1
DISC INFO:

Disc Title: MOONRAKER_HDCLUB
Disc Size: 46 626 909 616 bytes
Protection: AACS
BD-Java: Yes
BDInfo: 0.5.8

PLAYLIST REPORT:

Name: 00001.MPLS
Length: 2:06:28.872 (h:m:s.ms)
Size: 29 785 245 696 bytes
Total Bitrate: 31,40 Mbps

VIDEO:

Codec Bitrate Description
----- ------- -----------
MPEG-4 AVC Video 22014 kbps 1080p / 23,976 fps / 16:9 / High Profile 4.1

AUDIO:

Codec Language Bitrate Description
----- -------- ------- -----------
DTS-HD High-Res Audio English 3018 kbps 5.1 / 48 kHz / 3018 kbps / 24-bit (DTS Core: 5.1 / 48 kHz / 1509 kbps / 24-bit)
DTS Audio Italian 768 kbps 5.1 / 48 kHz / 768 kbps / 24-bit
DTS Audio Spanish 768 kbps 5.1 / 48 kHz / 768 kbps / 24-bit
Dolby Digital Audio Polish 448 kbps 5.1 / 48 kHz / 448 kbps / DN -4dB
Dolby Digital Audio English 224 kbps 2.0 / 48 kHz / 224 kbps / DN -4dB
Dolby Digital Audio English 224 kbps 2.0 / 48 kHz / 224 kbps / DN -4dB
Dolby Digital Audio Hungarian 448 kbps 5.1 / 48 kHz / 448 kbps / DN -4dB
Dolby Digital Audio Turkish 224 kbps 2.0 / 48 kHz / 224 kbps / DN -4dB
DTS Audio Russian 768 kbps 5.1 / 48 kHz / 768 kbps / 24-bit

SUBTITLES:

Codec Language Bitrate Description
----- -------- ------- -----------
Presentation Graphics English 19,074 kbps
Presentation Graphics Italian 17,263 kbps
Presentation Graphics Italian 0,255 kbps
Presentation Graphics Spanish 18,449 kbps
Presentation Graphics Spanish 0,245 kbps
Presentation Graphics Polish 17,305 kbps
Presentation Graphics Polish 0,200 kbps
Presentation Graphics Hungarian 16,319 kbps
Presentation Graphics Hungarian 0,194 kbps
Presentation Graphics Turkish 17,197 kbps
Presentation Graphics Turkish 0,215 kbps
Presentation Graphics Portuguese 18,827 kbps
Presentation Graphics Arabic 10,143 kbps
Presentation Graphics Hebrew 11,336 kbps
Presentation Graphics Icelandic 16,586 kbps
Presentation Graphics Croatian 15,982 kbps
Presentation Graphics Romanian 15,638 kbps
Presentation Graphics Greek 18,817 kbps
Presentation Graphics Hindi 9,714 kbps
Presentation Graphics Bulgarian 14,895 kbps
Presentation Graphics Slovenian 14,133 kbps
Presentation Graphics Italian 40,966 kbps
Presentation Graphics Spanish 38,408 kbps
Presentation Graphics Portuguese 40,084 kbps
Presentation Graphics Italian 42,554 kbps
Presentation Graphics Spanish 38,887 kbps
Presentation Graphics Portuguese 41,471 kbps
Presentation Graphics Russian 20,222 kbps
Presentation Graphics Russian 0,328 kbps

FILES:

Name Time In Length Size Total Bitrate
---- ------- ------ ---- -------------
00078.M2TS 0:00:00.000 2:06:28.872 29 785 245 696 31 399


James Bond: For Your Eyes Only (1981) Blu-ray CEE 1080p AVC DTS 5.1
DISC INFO:

Disc Size: 43 315 593 670 bytes
Protection: AACS
BD-Java: Yes
BDInfo: 0.5.6

PLAYLIST REPORT:

Name: 00001.MPLS
Length: 2:07:59 (h:m:s)
Size: 32 920 954 944 bytes
Total Bitrate: 34,30 Mbps

(*) Indicates included stream hidden by this playlist.

VIDEO:

Codec Bitrate Description
----- ------- -----------
MPEG-4 AVC Video 26215 kbps 1080p / 23,976 fps / 16:9 / High Profile 4.1

AUDIO:

Codec Language Bitrate Description
----- -------- ------- -----------
DTS-HD Master Audio English 2262 kbps 5.1 / 48 kHz / 2262 kbps / 24-bit (DTS Core: 5.1 / 48 kHz / 1509 kbps / 24-bit)
* DTS Audio Japanese 768 kbps 5.1 / 48 kHz / 768 kbps / 16-bit
DTS Audio Russian 768 kbps 5.1 / 48 kHz / 768 kbps / 24-bit
Dolby Digital Audio Czech 448 kbps 5.1 / 48 kHz / 448 kbps / DN -4dB
Dolby Digital Audio Thai 448 kbps 5.1 / 48 kHz / 448 kbps / DN -4dB
Dolby Digital Audio English 224 kbps 2.0 / 48 kHz / 224 kbps / DN -4dB
Dolby Digital Audio English 224 kbps 2.0 / 48 kHz / 224 kbps / DN -4dB
Dolby Digital Audio English 224 kbps 2.0 / 48 kHz / 224 kbps / DN -4dB

SUBTITLES:

Codec Language Bitrate Description
----- -------- ------- -----------
Presentation Graphics English 15,663 kbps
Presentation Graphics Chinese 14,081 kbps
Presentation Graphics Chinese 13,567 kbps
Presentation Graphics Chinese 30,061 kbps
Presentation Graphics Chinese 47,791 kbps
Presentation Graphics Chinese 49,116 kbps
Presentation Graphics Czech 16,091 kbps
Presentation Graphics Czech 0,189 kbps
* Presentation Graphics Japanese 9,333 kbps
* Presentation Graphics Japanese 0,136 kbps
* Presentation Graphics Japanese 20,614 kbps
* Presentation Graphics Japanese 36,062 kbps
* Presentation Graphics Japanese 37,292 kbps
Presentation Graphics Korean 10,484 kbps
Presentation Graphics Korean 23,701 kbps
Presentation Graphics Korean 38,633 kbps
Presentation Graphics Korean 41,836 kbps
Presentation Graphics Russian 16,402 kbps
Presentation Graphics Russian 0,206 kbps
Presentation Graphics Russian 33,642 kbps
Presentation Graphics Russian 58,222 kbps
Presentation Graphics Russian 58,085 kbps
Presentation Graphics Thai 11,929 kbps
Presentation Graphics Thai 0,127 kbps
Presentation Graphics Thai 25,842 kbps
Presentation Graphics Thai 47,481 kbps
Presentation Graphics Thai 46,981 kbps
Presentation Graphics Ukrainian 17,536 kbps

James Bond: Octopussy (1983) Blu-ray CEE 1080p AVC DTS 5.1-EbP
DISC INFO:

Disc Title: OCTOPUSSY
Disc Size: 46.860.241.761 bytes
Protection: AACS
BD-Java: Yes
BDInfo: 0.5.8

PLAYLIST REPORT:

Name: 00800.MPLS
Length: 2:10:48.632 (h:m:s.ms)
Size: 38.638.467.072 bytes
Total Bitrate: 39,38 Mbps

(*) Indicates included stream hidden by this playlist.

VIDEO:

Codec Bitrate Description
----- ------- -----------
MPEG-4 AVC Video 26990 kbps 1080p / 23,976 fps / 16:9 / High Profile 4.1

AUDIO:

Codec Language Bitrate Description
----- -------- ------- -----------
DTS-HD Master Audio English 4175 kbps 5.1 / 48 kHz / 4175 kbps / 24-bit (DTS Core: 5.1 / 48 kHz / 1509 kbps / 24-bit)
DTS Audio Spanish 768 kbps 5.1 / 48 kHz / 768 kbps / 24-bit
DTS Audio Italian 768 kbps 5.1 / 48 kHz / 768 kbps / 24-bit
* DTS Audio Japanese 768 kbps 5.1 / 48 kHz / 768 kbps / 24-bit
DTS Audio Russian 768 kbps 5.1 / 48 kHz / 768 kbps / 24-bit
Dolby Digital Audio Czech 448 kbps 5.1 / 48 kHz / 448 kbps
Dolby Digital Audio Hungarian 448 kbps 5.1 / 48 kHz / 448 kbps
Dolby Digital Audio Polish 448 kbps 5.1 / 48 kHz / 448 kbps
Dolby Digital Audio Thai 448 kbps 5.1 / 48 kHz / 448 kbps
Dolby Digital Audio English 224 kbps 2.0 / 48 kHz / 224 kbps
Dolby Digital Audio English 224 kbps 2.0 / 48 kHz / 224 kbps

SUBTITLES:

Codec Language Bitrate Description
----- -------- ------- -----------
* Presentation Graphics Japanese 10,153 kbps
Presentation Graphics English 17,216 kbps
Presentation Graphics Spanish 18,419 kbps
Presentation Graphics Italian 17,838 kbps
Presentation Graphics Russian 17,175 kbps
Presentation Graphics Bulgarian 15,645 kbps
Presentation Graphics Chinese 13,889 kbps
Presentation Graphics Croatian 16,780 kbps
Presentation Graphics Czech 17,547 kbps
Presentation Graphics Greek 18,990 kbps
Presentation Graphics Hebrew 11,260 kbps
Presentation Graphics Hungarian 17,646 kbps
Presentation Graphics Icelandic 15,889 kbps
Presentation Graphics Indonesian 20,768 kbps
Presentation Graphics Korean 10,445 kbps
Presentation Graphics Chinese 14,262 kbps
Presentation Graphics Polish 18,453 kbps
Presentation Graphics Portuguese 17,146 kbps
Presentation Graphics Romanian 16,490 kbps
Presentation Graphics Slovenian 14,569 kbps
Presentation Graphics Thai 14,009 kbps
Presentation Graphics Turkish 16,219 kbps
* Presentation Graphics Japanese 0,207 kbps
Presentation Graphics Spanish 40,458 kbps
Presentation Graphics Italian 41,348 kbps
Presentation Graphics Korean 31,092 kbps
Presentation Graphics Chinese 40,645 kbps
Presentation Graphics Portuguese 42,729 kbps
* Presentation Graphics Japanese 31,676 kbps

James Bond: A View to a Kill (1985) Blu-ray CEE 1080p AVC DTS 5.1-EbP
DISC INFO:

Disc Title: A VIEW TO A KILL
Disc Size: 47.295.300.958 bytes
Protection: AACS
BD-Java: Yes
BDInfo: 0.5.8

PLAYLIST REPORT:

Name: 00500.MPLS
Length: 2:11:18.787 (h:m:s.ms)
Size: 37.475.930.112 bytes
Total Bitrate: 38,05 Mbps

VIDEO:

Codec Bitrate Description
----- ------- -----------
MPEG-4 AVC Video 25346 kbps 1080p / 23,976 fps / 16:9 / High Profile 4.1

AUDIO:

Codec Language Bitrate Description
----- -------- ------- -----------
DTS-HD Master Audio English 4315 kbps 5.1 / 48 kHz / 4315 kbps / 24-bit (DTS Core: 5.1 / 48 kHz / 1509 kbps / 24-bit)
DTS Audio Japanese 768 kbps 5.1 / 48 kHz / 768 kbps / 24-bit
DTS Audio Spanish 768 kbps 5.1 / 48 kHz / 768 kbps / 24-bit
DTS Audio Italian 768 kbps 5.1 / 48 kHz / 768 kbps / 24-bit
DTS Audio Russian 768 kbps 5.1 / 48 kHz / 768 kbps / 24-bit
Dolby Digital Audio Czech 448 kbps 5.1 / 48 kHz / 448 kbps
Dolby Digital Audio Hungarian 448 kbps 5.1 / 48 kHz / 448 kbps
Dolby Digital Audio Polish 448 kbps 5.1 / 48 kHz / 448 kbps
Dolby Digital Audio Thai 448 kbps 5.1 / 48 kHz / 448 kbps
Dolby Digital Audio English 224 kbps 2.0 / 48 kHz / 224 kbps
Dolby Digital Audio English 224 kbps 2.0 / 48 kHz / 224 kbps

SUBTITLES:

Codec Language Bitrate Description
----- -------- ------- -----------
Presentation Graphics Japanese 11,404 kbps
Presentation Graphics English 21,245 kbps
Presentation Graphics Japanese 0,164 kbps
Presentation Graphics Spanish 22,500 kbps
Presentation Graphics Italian 21,071 kbps
Presentation Graphics Russian 21,668 kbps
Presentation Graphics Bulgarian 17,124 kbps
Presentation Graphics Chinese 17,552 kbps
Presentation Graphics Croatian 20,582 kbps
Presentation Graphics Czech 21,049 kbps
Presentation Graphics Greek 22,712 kbps
Presentation Graphics Hebrew 14,625 kbps
Presentation Graphics Hungarian 19,218 kbps
Presentation Graphics Icelandic 18,221 kbps
Presentation Graphics Indonesian 24,531 kbps
Presentation Graphics Korean 12,120 kbps
Presentation Graphics Chinese 16,783 kbps
Presentation Graphics Polish 22,514 kbps
Presentation Graphics Portuguese 22,780 kbps
Presentation Graphics Romanian 19,264 kbps
Presentation Graphics Slovenian 15,813 kbps
Presentation Graphics Thai 16,206 kbps
Presentation Graphics Turkish 21,281 kbps
Presentation Graphics Japanese 40,270 kbps
Presentation Graphics Spanish 61,140 kbps
Presentation Graphics Italian 58,973 kbps
Presentation Graphics Korean 42,885 kbps
Presentation Graphics Chinese 51,083 kbps
Presentation Graphics Portuguese 63,689 kbps
Presentation Graphics Thai 55,390 kbps

James Bond: The Living Daylights (1987) Blu-ray CEE 1080p AVC DTS 5.1-EbP
DISC INFO:

Disc Title: THE_LIVING_DAYLIGHTS
Disc Size: 47.219.498.567 bytes
Protection: AACS
BD-Java: Yes
BDInfo: 0.5.8

PLAYLIST REPORT:

Name: 00800.MPLS
Length: 2:10:53.303 (h:m:s.ms)
Size: 36.023.470.080 bytes
Total Bitrate: 36,70 Mbps

(*) Indicates included stream hidden by this playlist.

VIDEO:

Codec Bitrate Description
----- ------- -----------
MPEG-4 AVC Video 25986 kbps 1080p / 23,976 fps / 16:9 / High Profile 4.1

AUDIO:

Codec Language Bitrate Description
----- -------- ------- -----------
DTS-HD Master Audio English 2707 kbps 5.1 / 48 kHz / 2707 kbps / 24-bit (DTS Core: 5.1 / 48 kHz / 1509 kbps / 24-bit)
DTS Audio Spanish 768 kbps 5.1 / 48 kHz / 768 kbps / 24-bit
DTS Audio Italian 768 kbps 5.1 / 48 kHz / 768 kbps / 24-bit
* DTS Audio Japanese 768 kbps 5.1 / 48 kHz / 768 kbps / 24-bit
DTS Audio Russian 768 kbps 5.1 / 48 kHz / 768 kbps / 24-bit
Dolby Digital Audio Czech 448 kbps 5.1 / 48 kHz / 448 kbps
Dolby Digital Audio Hungarian 448 kbps 5.1 / 48 kHz / 448 kbps
Dolby Digital Audio Polish 448 kbps 5.1 / 48 kHz / 448 kbps
Dolby Digital Audio Thai 448 kbps 5.1 / 48 kHz / 448 kbps
Dolby Digital Audio English 224 kbps 2.0 / 48 kHz / 224 kbps

SUBTITLES:

Codec Language Bitrate Description
----- -------- ------- -----------
* Presentation Graphics Japanese 11,228 kbps
Presentation Graphics English 19,074 kbps
Presentation Graphics Spanish 20,495 kbps
Presentation Graphics Italian 18,816 kbps
Presentation Graphics Russian 19,153 kbps
Presentation Graphics Bulgarian 17,116 kbps
Presentation Graphics Chinese 15,568 kbps
Presentation Graphics Croatian 17,717 kbps
Presentation Graphics Czech 18,044 kbps
Presentation Graphics Greek 21,143 kbps
Presentation Graphics Hebrew 13,169 kbps
Presentation Graphics Hungarian 18,229 kbps
Presentation Graphics Icelandic 18,795 kbps
Presentation Graphics Indonesian 22,457 kbps
Presentation Graphics Korean 10,720 kbps
Presentation Graphics Chinese 15,280 kbps
Presentation Graphics Polish 19,453 kbps
Presentation Graphics Portuguese 18,641 kbps
Presentation Graphics Romanian 17,980 kbps
Presentation Graphics Slovenian 17,016 kbps
Presentation Graphics Thai 13,275 kbps
Presentation Graphics Turkish 18,812 kbps
* Presentation Graphics Japanese 0,157 kbps
Presentation Graphics Spanish 53,598 kbps
Presentation Graphics Italian 54,437 kbps
Presentation Graphics Korean 38,838 kbps
Presentation Graphics Chinese 45,012 kbps
Presentation Graphics Portuguese 56,243 kbps
* Presentation Graphics Japanese 37,223 kbps
Presentation Graphics Thai 45,565 kbps

James Bond: Licence to Kill (1989) Blu-ray CEE 1080p AVC DTS 5.1
DISC INFO:

Disc Size: 46 853 878 246 bytes
Protection: AACS
BD-Java: Yes
BDInfo: 0.5.6

PLAYLIST REPORT:

Name: 00001.MPLS
Length: 2:13:21 (h:m:s)
Size: 34 835 005 440 bytes
Total Bitrate: 34,83 Mbps

VIDEO:

Codec Bitrate Description
----- ------- -----------
MPEG-4 AVC Video 25024 kbps 1080p / 23,976 fps / 16:9 / High Profile 4.1

AUDIO:

Codec Language Bitrate Description
----- -------- ------- -----------
DTS-HD High-Res Audio English 3018 kbps 5.1 / 48 kHz / 3018 kbps / 24-bit (DTS Core: 5.1 / 48 kHz / 1509 kbps / 24-bit)
DTS Audio Italian 768 kbps 5.1 / 48 kHz / 768 kbps / 24-bit
DTS Audio Russian 768 kbps 5.1 / 48 kHz / 768 kbps / 24-bit
DTS Audio Spanish 768 kbps 5.1 / 48 kHz / 768 kbps / 24-bit
Dolby Digital Audio Hungarian 448 kbps 5.1 / 48 kHz / 448 kbps / DN -4dB
Dolby Digital Audio Polish 448 kbps 5.1 / 48 kHz / 448 kbps / DN -4dB
Dolby Digital Audio English 224 kbps 2.0 / 48 kHz / 224 kbps / DN -4dB
Dolby Digital Audio English 224 kbps 2.0 / 48 kHz / 224 kbps / DN -4dB
Dolby Digital Audio Turkish 224 kbps 2.0 / 48 kHz / 224 kbps / DN -4dB

SUBTITLES:

Codec Language Bitrate Description
----- -------- ------- -----------
Presentation Graphics English 24,379 kbps
Presentation Graphics Arabic 12,730 kbps
Presentation Graphics Bulgarian 18,739 kbps
Presentation Graphics Croatian 20,553 kbps
Presentation Graphics Greek 25,083 kbps
Presentation Graphics Hebrew 14,864 kbps
Presentation Graphics Hindi 13,050 kbps
Presentation Graphics Hungarian 22,991 kbps
Presentation Graphics Hungarian 0,243 kbps
Presentation Graphics Icelandic 20,717 kbps
Presentation Graphics Italian 21,650 kbps
Presentation Graphics Italian 0,118 kbps
Presentation Graphics Italian 51,333 kbps
Presentation Graphics Italian 49,966 kbps
Presentation Graphics Polish 24,021 kbps
Presentation Graphics Polish 0,066 kbps
Presentation Graphics Portuguese 24,292 kbps
Presentation Graphics Portuguese 50,866 kbps
Presentation Graphics Portuguese 54,384 kbps
Presentation Graphics Romanian 20,940 kbps
Presentation Graphics Russian 19,183 kbps
Presentation Graphics Russian 0,020 kbps
Presentation Graphics Russian 51,962 kbps
Presentation Graphics Russian 55,112 kbps
Presentation Graphics Slovenian 20,100 kbps
Presentation Graphics Spanish 22,051 kbps
Presentation Graphics Spanish 0,113 kbps
Presentation Graphics Spanish 49,339 kbps
Presentation Graphics Spanish 53,595 kbps
Presentation Graphics Turkish 23,142 kbps
Presentation Graphics Turkish 0,097 kbps
Presentation Graphics Ukrainian 18,736 kbps

James Bond: GoldenEye (1995) Blu-ray CEE 1080p AVC DTS 5.1-EbP
DISC INFO:

Disc Title: GOLDENEYE
Disc Size: 47.616.200.156 bytes
Protection: AACS
BD-Java: Yes
BDInfo: 0.5.8

PLAYLIST REPORT:

Name: 00500.MPLS
Length: 2:10:00.417 (h:m:s.ms)
Size: 33.858.822.144 bytes
Total Bitrate: 34,73 Mbps

VIDEO:

Codec Bitrate Description
----- ------- -----------
MPEG-4 AVC Video 22548 kbps 1080p / 23,976 fps / 16:9 / High Profile 4.1

AUDIO:

Codec Language Bitrate Description
----- -------- ------- -----------
DTS-HD Master Audio English 4328 kbps 5.1 / 48 kHz / 4328 kbps / 24-bit (DTS Core: 5.1 / 48 kHz / 1509 kbps / 24-bit)
DTS Audio Spanish 768 kbps 5.1 / 48 kHz / 768 kbps / 24-bit
DTS Audio Italian 768 kbps 5.1 / 48 kHz / 768 kbps / 24-bit
DTS Audio Japanese 768 kbps 5.1 / 48 kHz / 768 kbps / 24-bit
DTS Audio Russian 768 kbps 5.1 / 48 kHz / 768 kbps / 24-bit
Dolby Digital Audio Czech 448 kbps 5.1 / 48 kHz / 448 kbps
Dolby Digital Audio Hungarian 448 kbps 5.1 / 48 kHz / 448 kbps
Dolby Digital Audio Polish 448 kbps 5.1 / 48 kHz / 448 kbps
Dolby Digital Audio Thai 448 kbps 5.1 / 48 kHz / 448 kbps
Dolby Digital Audio English 192 kbps 1.0 / 48 kHz / 192 kbps

SUBTITLES:

Codec Language Bitrate Description
----- -------- ------- -----------
Presentation Graphics English 20,337 kbps
Presentation Graphics Spanish 21,604 kbps
Presentation Graphics Italian 20,273 kbps
Presentation Graphics Japanese 12,950 kbps
Presentation Graphics Japanese 0,179 kbps
Presentation Graphics Russian 19,670 kbps
Presentation Graphics Bulgarian 20,126 kbps
Presentation Graphics Chinese 15,906 kbps
Presentation Graphics Croatian 19,048 kbps
Presentation Graphics Czech 21,164 kbps
Presentation Graphics Estonian 17,135 kbps
Presentation Graphics Greek 23,368 kbps
Presentation Graphics Hebrew 14,278 kbps
Presentation Graphics Hungarian 20,982 kbps
Presentation Graphics Icelandic 19,620 kbps
Presentation Graphics Indonesian 22,511 kbps
Presentation Graphics Korean 11,107 kbps
Presentation Graphics Chinese 14,861 kbps
Presentation Graphics Polish 20,908 kbps
Presentation Graphics Portuguese 21,095 kbps
Presentation Graphics Romanian 19,770 kbps
Presentation Graphics Slovenian 17,082 kbps
Presentation Graphics Thai 13,150 kbps
Presentation Graphics Turkish 20,346 kbps
Presentation Graphics Spanish 56,059 kbps
Presentation Graphics Italian 57,712 kbps
Presentation Graphics Japanese 45,093 kbps
Presentation Graphics Korean 41,614 kbps

FILES:

Name Time In Length Size Total Bitrate
---- ------- ------ ---- -------------
00500.M2TS 0:00:00.000 2:10:00.417 33.858.822.144 34.725

James Bond: Tomorrow Never Dies (1997) 1080p Blu-ray CEE AVC DTS 5.1-EbP
DISC INFO:

Disc Title: TOMORROW_NEVER_DIES
Disc Size: 45.591.664.299 bytes
Protection: AACS
BD-Java: Yes
BDInfo: 0.5.8

PLAYLIST REPORT:

Name: 00600.MPLS
Length: 1:59:20.528 (h:m:s.ms)
Size: 35.256.373.248 bytes
Total Bitrate: 39,39 Mbps

VIDEO:

Codec Bitrate Description
----- ------- -----------
MPEG-4 AVC Video 28019 kbps 1080p / 23,976 fps / 16:9 / High Profile 4.1

AUDIO:

Codec Language Bitrate Description
----- -------- ------- -----------
DTS-HD Master Audio English 2550 kbps 5.1 / 48 kHz / 2550 kbps / 24-bit (DTS Core: 5.1 / 48 kHz / 1509 kbps / 24-bit)
DTS Audio Spanish 768 kbps 5.1 / 48 kHz / 768 kbps / 24-bit
DTS Audio Italian 768 kbps 5.1 / 48 kHz / 768 kbps / 24-bit
DTS Audio Japanese 768 kbps 5.1 / 48 kHz / 768 kbps / 24-bit
DTS Audio Russian 768 kbps 5.1 / 48 kHz / 768 kbps / 24-bit
Dolby Digital Audio Czech 448 kbps 5.1 / 48 kHz / 448 kbps
Dolby Digital Audio Hungarian 448 kbps 5.1 / 48 kHz / 448 kbps
Dolby Digital Audio Polish 448 kbps 5.1 / 48 kHz / 448 kbps
Dolby Digital Audio Thai 448 kbps 5.1 / 48 kHz / 448 kbps
Dolby Digital Audio English 224 kbps 2.0 / 48 kHz / 224 kbps
Dolby Digital Audio English 224 kbps 2.0 / 48 kHz / 224 kbps
Dolby Digital Audio English 224 kbps 2.0 / 48 kHz / 224 kbps / Dolby Surround

SUBTITLES:

Codec Language Bitrate Description
----- -------- ------- -----------
Presentation Graphics English 28,321 kbps
Presentation Graphics Spanish 28,804 kbps
Presentation Graphics Italian 27,280 kbps
Presentation Graphics Japanese 17,047 kbps
Presentation Graphics Japanese 0,298 kbps
Presentation Graphics Russian 30,225 kbps
Presentation Graphics Bulgarian 24,409 kbps
Presentation Graphics Chinese 22,724 kbps
Presentation Graphics Czech 23,448 kbps
Presentation Graphics Greek 29,185 kbps
Presentation Graphics Hebrew 18,525 kbps
Presentation Graphics Hungarian 23,235 kbps
Presentation Graphics Icelandic 25,471 kbps
Presentation Graphics Korean 14,889 kbps
Presentation Graphics Chinese 21,095 kbps
Presentation Graphics Polish 26,992 kbps
Presentation Graphics Portuguese 25,367 kbps
Presentation Graphics Romanian 26,103 kbps
Presentation Graphics Thai 20,347 kbps
Presentation Graphics Turkish 24,920 kbps
Presentation Graphics Italian 54,179 kbps
Presentation Graphics Japanese 37,762 kbps
Presentation Graphics Korean 36,151 kbps
Presentation Graphics Portuguese 60,711 kbps
Presentation Graphics Slovenian 20,761 kbps
Presentation Graphics Japanese 36,628 kbps
Presentation Graphics Italian 46,254 kbps
Presentation Graphics Portuguese 46,630 kbps
Presentation Graphics Croatian 26,093 kbps
Presentation Graphics Korean 31,906 kbps
Presentation Graphics Chinese 48,411 kbps
Presentation Graphics Indonesian 31,777 kbps

James Bond: The World Is Not Enough (1999) Blu-ray CEE 1080p AVC DTS 5.1
DISC INFO:

Disc Size: 49 184 855 407 bytes
Protection: AACS
BD-Java: Yes
BDInfo: 0.5.6

PLAYLIST REPORT:

Name: 00001.MPLS
Length: 2:08:20 (h:m:s)
Size: 33 571 971 072 bytes
Total Bitrate: 34,88 Mbps

VIDEO:

Codec Bitrate Description
----- ------- -----------
MPEG-4 AVC Video 25062 kbps 1080p / 23,976 fps / 16:9 / High Profile 4.1

AUDIO:

Codec Language Bitrate Description
----- -------- ------- -----------
DTS-HD High-Res Audio English 3018 kbps 5.1 / 48 kHz / 3018 kbps / 24-bit (DTS Core: 5.1 / 48 kHz / 1509 kbps / 24-bit)
DTS Audio Italian 768 kbps 5.1 / 48 kHz / 768 kbps / 24-bit
DTS Audio Russian 768 kbps 5.1 / 48 kHz / 768 kbps / 24-bit
DTS Audio Spanish 768 kbps 5.1 / 48 kHz / 768 kbps / 24-bit
Dolby Digital Audio Hungarian 448 kbps 5.1 / 48 kHz / 448 kbps / DN -4dB
Dolby Digital Audio Polish 448 kbps 5.1 / 48 kHz / 448 kbps
Dolby Digital Audio English 224 kbps 2.0 / 48 kHz / 224 kbps / DN -4dB
Dolby Digital Audio English 224 kbps 2.0 / 48 kHz / 224 kbps / DN -4dB
Dolby Digital Audio Turkish 224 kbps 2.0 / 48 kHz / 224 kbps / DN -4dB

SUBTITLES:

Codec Language Bitrate Description
----- -------- ------- -----------
Presentation Graphics English 23,475 kbps
Presentation Graphics Arabic 12,300 kbps
Presentation Graphics Bulgarian 20,900 kbps
Presentation Graphics Croatian 22,376 kbps
Presentation Graphics Greek 26,883 kbps
Presentation Graphics Hebrew 15,692 kbps
Presentation Graphics Hindi 14,031 kbps
Presentation Graphics Hungarian 24,187 kbps
Presentation Graphics Hungarian 0,342 kbps
Presentation Graphics Icelandic 22,365 kbps
Presentation Graphics Italian 22,995 kbps
Presentation Graphics Italian 0,324 kbps
Presentation Graphics Italian 55,952 kbps
Presentation Graphics Italian 48,452 kbps
Presentation Graphics Polish 25,120 kbps
Presentation Graphics Polish 0,138 kbps
Presentation Graphics Portuguese 25,853 kbps
Presentation Graphics Portuguese 57,043 kbps
Presentation Graphics Portuguese 43,598 kbps
Presentation Graphics Romanian 21,964 kbps
Presentation Graphics Russian 20,404 kbps
Presentation Graphics Russian 0,069 kbps
Presentation Graphics Russian 52,761 kbps
Presentation Graphics Russian 45,014 kbps
Presentation Graphics Slovenian 18,177 kbps
Presentation Graphics Spanish 24,683 kbps
Presentation Graphics Spanish 0,322 kbps
Presentation Graphics Spanish 51,946 kbps
Presentation Graphics Spanish 46,580 kbps
Presentation Graphics Turkish 24,357 kbps
Presentation Graphics Turkish 0,137 kbps
Presentation Graphics Ukrainian 19,881 kbps

James Bond: Die Another Day (2002) Blu-ray CEE 1080p AVC DTS 5.1
DISC INFO:

Disc Size: 43 051 401 436 bytes
Protection: AACS
BD-Java: Yes
BDInfo: 0.5.6

PLAYLIST REPORT:

Name: 00001.MPLS
Length: 2:12:34 (h:m:s)
Size: 30 016 969 920 bytes
Total Bitrate: 30,19 Mbps

(*) Indicates included stream hidden by this playlist.

VIDEO:

Codec Bitrate Description
----- ------- -----------
MPEG-4 AVC Video 21928 kbps 1080p / 23,976 fps / 16:9 / High Profile 4.1

AUDIO:

Codec Language Bitrate Description
----- -------- ------- -----------
DTS-HD Master Audio English 2335 kbps 5.1 / 48 kHz / 2335 kbps / 24-bit (DTS Core: 5.1 / 48 kHz / 1509 kbps / 24-bit)
* DTS Audio Japanese 768 kbps 5.1 / 48 kHz / 768 kbps / 16-bit
DTS Audio Russian 768 kbps 5.1 / 48 kHz / 768 kbps / 16-bit
Dolby Digital Audio Czech 448 kbps 5.1 / 48 kHz / 448 kbps / DN -4dB
Dolby Digital Audio Thai 448 kbps 5.1 / 48 kHz / 448 kbps / DN -4dB
Dolby Digital Audio English 224 kbps 2.0 / 48 kHz / 224 kbps / DN -4dB
Dolby Digital Audio English 224 kbps 2.0 / 48 kHz / 224 kbps / DN -4dB
* Dolby Digital Audio English 224 kbps 2.0 / 48 kHz / 224 kbps / DN -4dB

SUBTITLES:

Codec Language Bitrate Description
----- -------- ------- -----------
* Presentation Graphics English 68,102 kbps
Presentation Graphics English 18,415 kbps
Presentation Graphics Chinese 15,436 kbps
Presentation Graphics Chinese 15,095 kbps
Presentation Graphics Chinese 38,999 kbps
Presentation Graphics Chinese 55,923 kbps
* Presentation Graphics Chinese 68,199 kbps
Presentation Graphics Czech 17,568 kbps
Presentation Graphics Czech 0,209 kbps
* Presentation Graphics Japanese 13,051 kbps
* Presentation Graphics Japanese 0,777 kbps
* Presentation Graphics Japanese 24,995 kbps
* Presentation Graphics Japanese 44,564 kbps
* Presentation Graphics Japanese 64,469 kbps
Presentation Graphics Korean 12,394 kbps
Presentation Graphics Korean 30,999 kbps
Presentation Graphics Korean 45,151 kbps
* Presentation Graphics Korean 68,201 kbps
Presentation Graphics Russian 18,844 kbps
Presentation Graphics Russian 0,216 kbps
Presentation Graphics Russian 37,076 kbps
Presentation Graphics Russian 61,572 kbps
* Presentation Graphics Russian 64,466 kbps
Presentation Graphics Thai 14,163 kbps
Presentation Graphics Thai 0,331 kbps
Presentation Graphics Thai 29,452 kbps
Presentation Graphics Thai 49,328 kbps
* Presentation Graphics Thai 68,102 kbps
Presentation Graphics Ukrainian 18,240 kbps

James Bond: Casino Royale (2006) Blu-ray CEE 1080p AVC DD5.1-HDmonSK
DISC INFO:

Disc Title: CASINO_ROYAL
Disc Size: 49,173,670,560 bytes
Protection: AACS
BD-Java: No
BDInfo: 0.5.8

PLAYLIST REPORT:

Name: 00000.MPLS
Length: 2:24:20.652 (h:m:s.ms)
Size: 37,323,122,688 bytes
Total Bitrate: 34.48 Mbps

VIDEO:

Codec Bitrate Description
----- ------- -----------
MPEG-4 AVC Video 24637 kbps 1080p / 23.976 fps / 16:9 / High Profile 4.1

AUDIO:

Codec Language Bitrate Description
----- -------- ------- -----------
Dolby Digital Audio English 448 kbps 5.1 / 48 kHz / 448 kbps
Dolby Digital Audio English 448 kbps 5.1 / 48 kHz / 448 kbps / DN -4dB
LPCM Audio English 4608 kbps 5.1 / 48 kHz / 4608 kbps / 16-bit
Dolby Digital Audio Czech 448 kbps 5.1 / 48 kHz / 448 kbps / DN -6dB
Dolby Digital Audio Hungarian 448 kbps 5.1 / 48 kHz / 448 kbps
Dolby Digital Audio Polish 448 kbps 5.1 / 48 kHz / 448 kbps / DN -3dB
Dolby Digital Audio Russian 448 kbps 5.1 / 48 kHz / 448 kbps / DN -2dB
Dolby Digital Audio Turkish 448 kbps 5.1 / 48 kHz / 448 kbps

SUBTITLES:

Codec Language Bitrate Description
----- -------- ------- -----------
Presentation Graphics English 31.020 kbps
Presentation Graphics English 23.850 kbps
Presentation Graphics Arabic 14.963 kbps
Presentation Graphics Bulgarian 27.383 kbps
Presentation Graphics Croatian 27.010 kbps
Presentation Graphics Czech 27.953 kbps
Presentation Graphics Hebrew 24.288 kbps
Presentation Graphics Hindi 30.140 kbps
Presentation Graphics Hungarian 23.862 kbps
Presentation Graphics Icelandic 28.173 kbps
Presentation Graphics Polish 24.205 kbps
Presentation Graphics Romanian 31.716 kbps
Presentation Graphics Slovenian 24.752 kbps
Presentation Graphics Turkish 30.691 kbps

FILES:

Name Time In Length Size Total Bitrate
---- ------- ------ ---- -------------
00000.M2TS 0:00:00.000 2:24:20.652 37,323,122,688 34,476

James Bond: Quantum of Solace (2008) Blu-ray CEE 1080p AVC DTS 5.1
"DISC INFO:

Disc Title:
Disc Size: 48 120 037 670 bytes
Protection: AACS
BD-Java: Yes
BDInfo: 0.5.3

PLAYLIST REPORT:

Name: 00001.MPLS
Length: 1:46:14 (h:m:s)
Size: 30 696 007 680 bytes
Total Bitrate: 38,52 Mbps

VIDEO:

Codec Bitrate Description
----- ------- -----------
MPEG-4 AVC Video 28931 kbps 1080p / 23,976 fps / 16:9 / High Profile 4.1

AUDIO:

Codec Language Bitrate Description
----- -------- ------- -----------
DTS-HD High-Res Audio English 3018 kbps 5.1 / 48 kHz / 3018 kbps / 24-bit (DTS Core: 5.1 / 48 kHz / 1509 kbps / 24-bit)
DTS Audio French 768 kbps 5.1 / 48 kHz / 768 kbps / 24-bit
DTS Audio Russian 768 kbps 5.1 / 48 kHz / 768 kbps / 24-bit
Dolby Digital Audio Czech 448 kbps 5.1 / 48 kHz / 448 kbps / DN -4dB
Dolby Digital Audio Hungarian 448 kbps 5.1 / 48 kHz / 448 kbps / DN -4dB
Dolby Digital Audio Polish 448 kbps 5.1 / 48 kHz / 448 kbps / DN -4dB
Dolby Digital Audio Turkish 448 kbps 5.1 / 48 kHz / 448 kbps / DN -4dB
Dolby Digital Audio Ukrainian 448 kbps 5.1 / 48 kHz / 448 kbps / DN -4dB

SUBTITLES:

Codec Language Bitrate Description
----- -------- ------- -----------
Presentation Graphics English 25,611 kbps
Presentation Graphics Arabic 12,684 kbps
Presentation Graphics Bulgarian 23,541 kbps
Presentation Graphics Croatian 26,129 kbps
Presentation Graphics Czech 23,018 kbps
Presentation Graphics Dutch 26,974 kbps
Presentation Graphics Estonian 26,094 kbps
Presentation Graphics French 21,922 kbps
Presentation Graphics Greek 26,793 kbps
Presentation Graphics Hebrew 18,162 kbps
Presentation Graphics Hungarian 21,406 kbps
Presentation Graphics Icelandic 25,479 kbps
Presentation Graphics Kazakh 27,329 kbps
Presentation Graphics Latvian 24,000 kbps
Presentation Graphics Lithuanian 25,821 kbps
Presentation Graphics Polish 22,075 kbps
Presentation Graphics Portuguese 26,565 kbps
Presentation Graphics Romanian 25,993 kbps
Presentation Graphics Russian 26,724 kbps
Presentation Graphics Serbian 23,964 kbps
Presentation Graphics Slovenian 20,921 kbps
Presentation Graphics Turkish 25,526 kbps
Presentation Graphics Ukrainian 28,231 kbps "

Skyfall 2012 BluRay 1080p AVC DTS-HD MA5.1-CHDBits
Disc Title: Skyfall 2012 BluRay 1080p AVC DTS-HD MA5.[email protected]
Disc Size: 49,148,295,506 bytes
Protection: AACS
BD-Java: Yes
BDInfo: 0.5.8

PLAYLIST REPORT:

Name: 00500.MPLS
Length: 2:23:09.956 (h:m:s.ms)
Size: 37,448,669,184 bytes
Total Bitrate: 34.88 Mbps

VIDEO:

Codec Bitrate Description
----- ------- -----------
MPEG-4 AVC Video 22684 kbps 1080p / 23.976 fps / 16:9 / High Profile 4.1


AUDIO:

Codec Language Bitrate Description
----- -------- ------- -----------
DTS-HD Master Audio English 3830 kbps 5.1 / 48 kHz / 3830 kbps / 24-bit (DTS Core: 5.1 / 48 kHz / 1509 kbps / 24-bit)
Dolby Digital Audio Spanish 448 kbps 5.1 / 48 kHz / 448 kbps
DTS Audio Chinese 1509 kbps 5.1 / 48 kHz / 1509 kbps / 24-bit
DTS Audio Spanish 768 kbps 5.1 / 48 kHz / 768 kbps / 24-bit
DTS Audio German 768 kbps 5.1 / 48 kHz / 768 kbps / 24-bit
Dolby Digital Audio Portuguese 448 kbps 5.1 / 48 kHz / 448 kbps
Dolby Digital Audio English 224 kbps 2.0 / 48 kHz / 224 kbps
Dolby Digital Audio English 224 kbps 2.0 / 48 kHz / 224 kbps
Dolby Digital Audio Turkish 448 kbps 5.1 / 48 kHz / 448 kbps
Dolby Digital Audio Thai 448 kbps 5.1 / 48 kHz / 448 kbps

SUBTITLES:

Codec Language Bitrate Description
----- -------- ------- -----------
Presentation Graphics English 20.341 kbps
Presentation Graphics Spanish 19.166 kbps
Presentation Graphics French 17.588 kbps
Presentation Graphics Chinese 54.847 kbps
Presentation Graphics Chinese 56.105 kbps
Presentation Graphics German 20.627 kbps
Presentation Graphics Chinese 54.754 kbps
Presentation Graphics Chinese 18.160 kbps
Presentation Graphics Croatian 16.867 kbps
Presentation Graphics Greek 21.696 kbps
Presentation Graphics Chinese 56.028 kbps
Presentation Graphics Malay 23.004 kbps
Presentation Graphics Chinese 14.819 kbps
Presentation Graphics Portuguese 20.867 kbps
Presentation Graphics Serbian 18.391 kbps
Presentation Graphics Slovenian 16.002 kbps
Presentation Graphics Thai 15.474 kbps
Presentation Graphics Turkish 19.374 kbps
Presentation Graphics French 58.478 kbps
Presentation Graphics Spanish 57.678 kbps
Presentation Graphics Dutch 59.383 kbps
Presentation Graphics German 60.733 kbps
Presentation Graphics French 45.630 kbps
Presentation Graphics Spanish 49.153 kbps
Presentation Graphics Dutch 45.689 kbps
Presentation Graphics German 49.941 kbps
Presentation Graphics Vietnamese 23.297 kbps



1967




1969




1971




1974




1977




1979




1983




1985




1987




1995




1997