Register
Results 1 to 1 of 1
Like Tree1Likes
  • 1 Post By MuraTurk

Thread: X-Men 2000/2003/2006/2009/2011/2013/2014 Blu-ray CEE EUR 1080p AVC DTS 5.1

  1. #1
    Administrator MuraTurk's Avatar
    Join Date
    Apr 2014
    Location
    Angara
    Posts
    4,904

    X-Men 2000/2003/2006/2009/2011/2013/2014 Blu-ray CEE EUR 1080p AVC DTS 5.1



    INFO
    File Name...........: X-Men Blu-ray CEE (2000/2003/2006/2009/2011/2013/2014) 1080p AVC DTS 5.1
    IMDB................: http://www.imdb.com/title/tt0120903/
    IMDB................: http://www.imdb.com/title/tt0290334/
    IMDB................: http://www.imdb.com/title/tt0376994/
    IMDB................: http://www.imdb.com/title/tt0458525/
    IMDB................: http://www.imdb.com/title/tt1270798/
    IMDB................: http://www.imdb.com/title/tt1430132/
    IMDB................: http://www.imdb.com/title/tt1877832/
    Trailers............: http://www.youtube.com/watch?v=av8Dq7L77l0
    Rar Information.....: 1 PART | NO PASSWORD | INTERCHANGEABLE | RECOVERY VOLUMES %5
    Upload Host.........: VIP | RapidTurk | Redbunker | Turbobit





    Private Download / Ozel Uyelik
    This file is avaible in our servers; To download this file without fear of deleting please become VIP member.(Please Click the picture.)
    Bu dosya serverlarimiz da mevcut, asla silinmeyen dosyalari yuksek hizda indirmek icin VIP uyelik aliniz.(VIP icin resme tiklayiniz.)





    ** External content visible to Registered Users only.Sadece Uyeler Gorebilir.**





    ** External content visible to Registered Users only.Sadece Uyeler Gorebilir.**





    ** External content visible to Registered Users only.Sadece Uyeler Gorebilir.**




















    X-Men 2000 1080p Blu-ray CEE AVC DTS-HD-EiMi

    DISC INFO:
    Disc Title: X-Men.2000.1080p.Blu-ray.CEE.AVC
    Disc Size: 40,692,639,046 bytes
    Protection: AACS
    BD-Java: Yes
    Extras: D-BOX Motion Code
    BDInfo: 0.5.8

    PLAYLIST REPORT:

    Name: 00013.MPLS
    Length: 1:44:20.295 (h:m:s.ms)
    Size: 30,825,086,976 bytes
    Total Bitrate: 39.39 Mbps

    (*) Indicates included stream hidden by this playlist.

    VIDEO:

    Codec Bitrate Description
    ----- ------- -----------
    MPEG-4 AVC Video 27993 kbps 1080p / 23.976 fps / 16:9 / High Profile 4.1
    * MPEG-4 AVC Video 1119 kbps 480p / 23.976 fps / 16:9 / High Profile 3.2

    AUDIO:

    Codec Language Bitrate Description
    ----- -------- ------- -----------
    DTS-HD High-Res Audio English 3018 kbps 5.1 / 48 kHz / 3018 kbps / 24-bit (DTS Core: 5.1 / 48 kHz / 1509 kbps / 24-bit)
    Dolby Digital Audio English 448 kbps 5.1 / 48 kHz / 448 kbps / DN -4dB
    DTS Audio French 768 kbps 5.1 / 48 kHz / 768 kbps / 24-bit
    DTS Audio Italian 768 kbps 5.1 / 48 kHz / 768 kbps / 24-bit
    DTS Audio Russian 768 kbps 5.1 / 48 kHz / 768 kbps / 24-bit
    Dolby Digital Audio Czech 224 kbps 2.0 / 48 kHz / 224 kbps / DN -4dB / Dolby Surround
    Dolby Digital Audio Polish 224 kbps 2.0 / 48 kHz / 224 kbps / DN -4dB / Dolby Surround
    Dolby Digital Audio Hungarian 448 kbps 5.1 / 48 kHz / 448 kbps / DN -4dB
    Dolby Digital Audio Turkish 224 kbps 2.0 / 48 kHz / 224 kbps / DN -4dB / Dolby Surround
    Dolby Digital Audio English 224 kbps 2.0 / 48 kHz / 224 kbps / DN -4dB
    * DTS Express English 96 kbps 1.0 / 48 kHz / 96 kbps / 24-bit

    SUBTITLES:

    Codec Language Bitrate Description
    ----- -------- ------- -----------
    Presentation Graphics English 19.505 kbps
    Presentation Graphics French 18.735 kbps
    Presentation Graphics French 58.617 kbps
    Presentation Graphics Italian 18.686 kbps
    Presentation Graphics Italian 59.429 kbps
    Presentation Graphics Russian 19.023 kbps
    Presentation Graphics Russian 55.201 kbps
    Presentation Graphics Czech 19.307 kbps
    Presentation Graphics Polish 19.742 kbps
    Presentation Graphics Hungarian 18.338 kbps
    Presentation Graphics Turkish 18.047 kbps
    Presentation Graphics Dutch 18.535 kbps
    Presentation Graphics Dutch 58.644 kbps
    Presentation Graphics Romanian 17.012 kbps
    Presentation Graphics Croatian 17.799 kbps
    Presentation Graphics Bulgarian 16.348 kbps
    Presentation Graphics Hebrew 14.486 kbps
    Presentation Graphics Icelandic 19.637 kbps
    Presentation Graphics Portuguese 18.927 kbps
    Presentation Graphics Arabic 9.083 kbps
    Presentation Graphics Greek 19.712 kbps
    Presentation Graphics Slovenian 15.209 kbps
    Presentation Graphics Estonian 17.635 kbps
    Presentation Graphics English 16.789 kbps
    Presentation Graphics French 33.097 kbps
    * Presentation Graphics Italian 36.981 kbps
    * Presentation Graphics Russian 33.257 kbps
    * Presentation Graphics Dutch 33.328 kbps

    FILES:

    Name Time In Length Size Total Bitrate
    ---- ------- ------ ---- -------------
    00074.M2TS 0:00:00.000 1:44:20.295 30,825,086,976 39,391

    X2 2003 1080p Blu-Ray CEE AVC DTS-HD-EiMi

    DISC INFO:

    Disc Title: X2.2003.1080p.Blu-Ray.CEE.AVC.DTS-HD-EiMi
    Disc Size: 38,002,070,728 bytes
    Protection: AACS
    BD-Java: Yes
    Extras: D-BOX Motion Code
    BDInfo: 0.5.8

    PLAYLIST REPORT:

    Name: 00011.MPLS
    Length: 2:13:47.477 (h:m:s.ms)
    Size: 35,566,012,416 bytes
    Total Bitrate: 35.44 Mbps

    (*) Indicates included stream hidden by this playlist.

    VIDEO:

    Codec Bitrate Description
    ----- ------- -----------
    MPEG-4 AVC Video 24203 kbps 1080p / 23.976 fps / 16:9 / High Profile 4.1
    * MPEG-4 AVC Video 1008 kbps 480p / 23.976 fps / 16:9 / High Profile 3.2

    AUDIO:

    Codec Language Bitrate Description
    ----- -------- ------- -----------
    DTS-HD High-Res Audio English 3018 kbps 5.1 / 48 kHz / 3018 kbps / 24-bit (DTS Core: 5.1 / 48 kHz / 1509 kbps / 24-bit)
    Dolby Digital Audio English 640 kbps 5.1 / 48 kHz / 640 kbps / DN -4dB
    DTS Audio French 768 kbps 5.1 / 48 kHz / 768 kbps / 24-bit
    DTS Audio Italian 768 kbps 5.1 / 48 kHz / 768 kbps / 24-bit
    DTS Audio Russian 768 kbps 5.1 / 48 kHz / 768 kbps / 24-bit
    Dolby Digital Audio Czech 224 kbps 2.0 / 48 kHz / 224 kbps / DN -4dB / Dolby Surround
    Dolby Digital Audio Polish 224 kbps 2.0 / 48 kHz / 224 kbps / DN -4dB / Dolby Surround
    Dolby Digital Audio Turkish 224 kbps 2.0 / 48 kHz / 224 kbps / DN -4dB / Dolby Surround
    Dolby Digital Audio English 224 kbps 2.0 / 48 kHz / 224 kbps / DN -4dB
    Dolby Digital Audio English 224 kbps 2.0 / 48 kHz / 224 kbps / DN -4dB
    * DTS Express English 96 kbps 1.0 / 48 kHz / 96 kbps / 24-bit

    SUBTITLES:

    Codec Language Bitrate Description
    ----- -------- ------- -----------
    Presentation Graphics English 18.428 kbps
    Presentation Graphics French 18.361 kbps
    Presentation Graphics French 44.757 kbps
    Presentation Graphics French 45.617 kbps
    Presentation Graphics Italian 18.739 kbps
    Presentation Graphics Italian 48.503 kbps
    Presentation Graphics Italian 50.100 kbps
    Presentation Graphics Russian 18.119 kbps
    Presentation Graphics Russian 50.004 kbps
    Presentation Graphics Russian 50.014 kbps
    Presentation Graphics Czech 16.852 kbps
    Presentation Graphics Polish 17.093 kbps
    Presentation Graphics Turkish 16.679 kbps
    Presentation Graphics Dutch 16.229 kbps
    Presentation Graphics Dutch 43.470 kbps
    Presentation Graphics Dutch 39.880 kbps
    Presentation Graphics Bulgarian 16.356 kbps
    Presentation Graphics Croatian 16.997 kbps
    Presentation Graphics Estonian 16.768 kbps
    Presentation Graphics Latvian 15.457 kbps
    Presentation Graphics Lithuanian 16.881 kbps
    Presentation Graphics Romanian 16.726 kbps
    Presentation Graphics Slovenian 16.644 kbps
    Presentation Graphics Greek 18.372 kbps
    Presentation Graphics Arabic 9.423 kbps
    Presentation Graphics Hebrew 13.491 kbps
    Presentation Graphics Portuguese 17.549 kbps
    Presentation Graphics English 24.777 kbps
    Presentation Graphics French 29.713 kbps
    * Presentation Graphics Italian 32.701 kbps
    * Presentation Graphics Russian 30.293 kbps
    * Presentation Graphics Dutch 28.512 kbps

    FILES:

    Name Time In Length Size Total Bitrate
    ---- ------- ------ ---- -------------
    00187.M2TS 0:00:00.000 2:13:47.477 35,566,012,416 35,444

    X-Men: The Last Stand 2006 1080p Blu-Ray CEE AVC DTS-HD-EiMi

    DISC INFO:

    Disc Title: X-Men.The.Last.Stand.2006.1080p.Blu-Ray.CEE.AVC.DTS-HD-EiMi
    Disc Size: 39,670,260,326 bytes
    Protection: AACS
    BD-Java: Yes
    Extras: D-BOX Motion Code
    BDInfo: 0.5.8

    PLAYLIST REPORT:

    Name: 00013.MPLS
    Length: 1:44:05.239 (h:m:s.ms)
    Size: 33,617,879,040 bytes
    Total Bitrate: 43.06 Mbps

    (*) Indicates included stream hidden by this playlist.

    VIDEO:

    Codec Bitrate Description
    ----- ------- -----------
    MPEG-4 AVC Video 30145 kbps 1080p / 23.976 fps / 16:9 / High Profile 4.1
    * MPEG-4 AVC Video 1220 kbps 480p / 23.976 fps / 16:9 / High Profile 3.2

    AUDIO:

    Codec Language Bitrate Description
    ----- -------- ------- -----------
    DTS-HD High-Res Audio English 3018 kbps 6.1 / 48 kHz / 3018 kbps / 24-bit (DTS Core: 6.1-ES / 48 kHz / 1509 kbps / 24-bit)
    Dolby Digital EX Audio English 448 kbps 5.1-EX / 48 kHz / 448 kbps / DN -4dB
    DTS Audio French 768 kbps 5.1 / 48 kHz / 768 kbps / 24-bit
    DTS Audio Italian 768 kbps 5.1 / 48 kHz / 768 kbps / 24-bit
    DTS Audio Russian 768 kbps 5.1 / 48 kHz / 768 kbps / 24-bit
    Dolby Digital Audio Czech 448 kbps 5.1 / 48 kHz / 448 kbps / DN -4dB
    Dolby Digital Audio Polish 640 kbps 5.1 / 48 kHz / 640 kbps / DN -4dB
    Dolby Digital Audio Turkish 448 kbps 5.1 / 48 kHz / 448 kbps / DN -4dB
    Dolby Digital Audio English 224 kbps 2.0 / 48 kHz / 224 kbps / DN -4dB
    Dolby Digital Audio English 224 kbps 2.0 / 48 kHz / 224 kbps / DN -4dB
    * DTS Express English 96 kbps 1.0 / 48 kHz / 96 kbps / 24-bit

    SUBTITLES:

    Codec Language Bitrate Description
    ----- -------- ------- -----------
    Presentation Graphics English 28.707 kbps
    Presentation Graphics French 22.355 kbps
    Presentation Graphics French 75.720 kbps
    Presentation Graphics French 50.764 kbps
    Presentation Graphics Italian 27.378 kbps
    Presentation Graphics Italian 77.883 kbps
    Presentation Graphics Italian 52.824 kbps
    Presentation Graphics Russian 28.338 kbps
    Presentation Graphics Russian 67.084 kbps
    Presentation Graphics Russian 65.032 kbps
    Presentation Graphics Czech 24.390 kbps
    Presentation Graphics Polish 25.602 kbps
    Presentation Graphics Turkish 26.492 kbps
    Presentation Graphics Dutch 27.159 kbps
    Presentation Graphics Dutch 78.456 kbps
    Presentation Graphics Dutch 53.601 kbps
    Presentation Graphics Bulgarian 25.832 kbps
    Presentation Graphics Croatian 23.937 kbps
    Presentation Graphics Estonian 27.265 kbps
    Presentation Graphics Latvian 26.957 kbps
    Presentation Graphics Lithuanian 27.291 kbps
    Presentation Graphics Romanian 26.265 kbps
    Presentation Graphics Slovenian 25.483 kbps
    Presentation Graphics Greek 24.543 kbps
    Presentation Graphics Arabic 14.334 kbps
    Presentation Graphics Hebrew 21.633 kbps
    Presentation Graphics Portuguese 29.093 kbps
    Presentation Graphics English 71.633 kbps
    Presentation Graphics French 53.703 kbps
    * Presentation Graphics Italian 50.588 kbps
    * Presentation Graphics Russian 51.149 kbps
    * Presentation Graphics Dutch 46.952 kbps

    FILES:

    Name Time In Length Size Total Bitrate
    ---- ------- ------ ---- -------------
    00074.M2TS 0:00:00.000 1:44:05.239 33,617,879,040 43,064

    X-Men Origins: Wolverine - Extended Cut 2009 1080p Blu-ray AVC DTS-HD MA 5.1-SSG


    DISC INFO:

    Disc Title: WOLVERINE_EXT
    Disc Size: 42,860,209,819 bytes
    Protection: AACS
    BD-Java: Yes
    BDInfo: 0.5.8

    PLAYLIST REPORT:

    Name: 00006.MPLS
    Length: 1:47:21.393 (h:m:s.ms)
    Size: 28,643,887,104 bytes
    Total Bitrate: 35.57 Mbps

    (*) Indicates included stream hidden by this playlist.

    VIDEO:

    Codec Bitrate Description
    ----- ------- -----------
    MPEG-4 AVC Video 20858 kbps 1080p / 23.976 fps / 16:9 / High Profile 4.1
    * MPEG-4 AVC Video 1999 kbps 480p / 23.976 fps / 16:9 / High Profile 3.2
    * MPEG-4 AVC Video 1990 kbps 480p / 23.976 fps / 16:9 / High Profile 3.2
    * MPEG-4 AVC Video 1997 kbps 480p / 23.976 fps / 16:9 / High Profile 3.2

    AUDIO:

    Codec Language Bitrate Description
    ----- -------- ------- -----------
    DTS-HD Master Audio English 3892 kbps 5.1 / 48 kHz / 3892 kbps / 24-bit (DTS Core: 5.1 / 48 kHz / 1509 kbps / 24-bit)
    Dolby Digital Audio Czech 448 kbps 5.1 / 48 kHz / 448 kbps / DN -4dB
    Dolby Digital Audio Polish 448 kbps 5.1 / 48 kHz / 448 kbps / DN -4dB
    Dolby Digital Audio Turkish 448 kbps 5.1 / 48 kHz / 448 kbps / DN -4dB
    Dolby Digital Audio English 224 kbps 2.0 / 48 kHz / 224 kbps / DN -4dB
    Dolby Digital Audio English 224 kbps 2.0 / 48 kHz / 224 kbps / DN -4dB
    * DTS Express English 96 kbps 1.0 / 48 kHz / 96 kbps / 24-bit
    * DTS Express English 96 kbps 1.0 / 48 kHz / 96 kbps / 24-bit
    * DTS Express English 96 kbps 1.0 / 48 kHz / 96 kbps / 24-bit

    SUBTITLES:

    Codec Language Bitrate Description
    ----- -------- ------- -----------
    Presentation Graphics English 22.087 kbps
    Presentation Graphics Danish 21.812 kbps
    Presentation Graphics Danish 58.965 kbps
    Presentation Graphics Danish 54.483 kbps
    Presentation Graphics Finnish 17.617 kbps
    Presentation Graphics Finnish 49.117 kbps
    Presentation Graphics Finnish 51.505 kbps
    Presentation Graphics Norwegian 20.177 kbps
    Presentation Graphics Norwegian 58.304 kbps
    Presentation Graphics Norwegian 51.119 kbps
    Presentation Graphics Swedish 18.836 kbps
    Presentation Graphics Swedish 58.938 kbps
    Presentation Graphics Swedish 47.472 kbps
    Presentation Graphics Bulgarian 19.083 kbps
    Presentation Graphics Czech 20.628 kbps
    Presentation Graphics Arabic 12.345 kbps
    Presentation Graphics Polish 17.851 kbps
    Presentation Graphics Portuguese 21.197 kbps
    Presentation Graphics Turkish 21.666 kbps
    * Presentation Graphics Danish 9.039 kbps
    * Presentation Graphics Finnish 9.209 kbps
    * Presentation Graphics Norwegian 9.183 kbps
    * Presentation Graphics Swedish 9.536 kbps
    * Presentation Graphics Danish 14.909 kbps
    * Presentation Graphics Finnish 15.339 kbps
    * Presentation Graphics Norwegian 14.812 kbps
    * Presentation Graphics Swedish 15.357 kbps
    * Presentation Graphics Danish 1.403 kbps
    * Presentation Graphics Finnish 1.366 kbps
    * Presentation Graphics Norwegian 1.423 kbps
    * Presentation Graphics Swedish 1.531 kbps

    FILES:

    Name Time In Length Size Total Bitrate
    ---- ------- ------ ---- -------------
    01006.M2TS 0:00:00.000 1:47:21.393 28,643,887,104 35,575


    X-Men: First Class 2011 1080p CEE Blu-ray AVC DTS-HD MA 5.1-EiMi

    DISC INFO:
    Disc Title: X-Men: First Class 2011 1080p BluRay CEE AVC DTS-HD MA 5.1 -EiMi
    Disc Size: 44 759 461 932 bytes
    Protection: AACS
    BD-Java: Yes
    Extras: PSP Digital Copy
    BDInfo: 0.5.6

    PLAYLIST REPORT:

    Name: 00376.MPLS
    Length: 2:11:42 (h:m:s)
    Size: 31 166 251 008 bytes
    Total Bitrate: 31,55 Mbps

    VIDEO:

    Codec Bitrate Description
    ----- ------- -----------
    MPEG-4 AVC Video 23296 kbps 1080p / 23,976 fps / 16:9 / High Profile 4.1

    AUDIO:

    Codec Language Bitrate Description
    ----- -------- ------- -----------
    DTS-HD Master Audio English 3967 kbps 5.1 / 48 kHz / 3967 kbps / 24-bit
    (DTS Core: 5.1 / 48 kHz / 1509 kbps / 24-bit)
    Dolby Digital Audio English 448 kbps 5.1 / 48 kHz / 448 kbps
    Dolby Digital Audio English 448 kbps 5.1 / 48 kHz / 448 kbps
    Dolby Digital Audio Czech 448 kbps 5.1 / 48 kHz / 448 kbps
    Dolby Digital Audio Polish 448 kbps 5.1 / 48 kHz / 448 kbps
    Dolby Digital Audio Turkish 448 kbps 5.1 / 48 kHz / 448 kbps

    SUBTITLES:

    Codec Language Bitrate Description
    ----- -------- ------- -----------
    Presentation Graphics English 33,335 kbps
    Presentation Graphics English 2,528 kbps
    Presentation Graphics Arabic 14,424 kbps
    Presentation Graphics Bulgarian 29,185 kbps
    Presentation Graphics Czech 28,168 kbps
    Presentation Graphics Danish 29,120 kbps
    Presentation Graphics Finnish 23,276 kbps
    Presentation Graphics Norwegian 24,925 kbps
    Presentation Graphics Polish 24,876 kbps
    Presentation Graphics Portuguese 30,788 kbps
    Presentation Graphics Swedish 23,223 kbps
    Presentation Graphics Turkish 30,722 kbps

    The Wolverine 2013 Theatrical Cut 1080p EUR Blu-ray AVC DTS-HD MA 7.1-P2H

    TECHNiCAL SPECS :
    Disc Title: The Wolverine 2013 Theatrical Cut 1080p Blu-ray AVC DTS-HD MA 7.1-P2H
    Disc Size: 47,514,989,805 bytes
    Protection: AACS
    BD-Java: Yes
    BDInfo: 0.5.8

    PLAYLIST REPORT:

    Name: 00800.MPLS
    Length: 2:06:08.561 (h:m:s.ms)
    Size: 40,077,299,712 bytes
    Total Bitrate: 42.36 Mbps

    VIDEO:

    Codec Bitrate Description
    ----- ------- -----------
    MPEG-4 AVC Video 31043 kbps 1080p / 23.976 fps / 16:9 / High Profile 4.1

    AUDIO:

    Codec Language Bitrate Description
    ----- -------- ------- -----------
    DTS-HD Master Audio English 5363 kbps 7.1 / 48 kHz / 5363 kbps / 24-bit (DTS Core: 5.1-ES / 48 kHz / 1509 kbps / 24-bit)
    Dolby Digital Audio English 224 kbps 2.0 / 48 kHz / 224 kbps
    DTS Audio French 768 kbps 5.1 / 48 kHz / 768 kbps / 24-bit
    DTS Audio Spanish 768 kbps 5.1 / 48 kHz / 768 kbps / 24-bit
    DTS Audio German 768 kbps 5.1 / 48 kHz / 768 kbps / 24-bit
    Dolby Digital Audio Chinese 448 kbps 5.1 / 48 kHz / 448 kbps
    Dolby Digital Audio Turkish 448 kbps 5.1 / 48 kHz / 448 kbps

    SUBTITLES:

    Codec Language Bitrate Description
    ----- -------- ------- -----------
    Presentation Graphics English 17.208 kbps
    Presentation Graphics English 0.932 kbps
    Presentation Graphics French 15.276 kbps
    Presentation Graphics Spanish 16.538 kbps
    Presentation Graphics Danish 17.176 kbps
    Presentation Graphics Dutch 15.400 kbps
    Presentation Graphics Finnish 16.444 kbps
    Presentation Graphics German 19.870 kbps
    Presentation Graphics Norwegian 16.588 kbps
    Presentation Graphics Swedish 15.596 kbps
    Presentation Graphics Chinese 15.282 kbps
    Presentation Graphics Turkish 18.058 kbps

    The Wolverine 2013 1080p Extended Blu-ray AVC DTS-HD MA 7 1-oOo

    DISC INFO:

    Disc Title: THE_WOLVERINE
    Disc Size: 44 808 605 885 bytes
    Protection: AACS
    BD-Java: Yes
    BDInfo: 0.5.6

    PLAYLIST REPORT:

    Name: 00800.MPLS
    Length: 2:18:05 (h:m:s)
    Size: 43 833 200 640 bytes
    Total Bitrate: 42,32 Mbps

    VIDEO:

    Codec Bitrate Description
    ----- ------- -----------
    MPEG-4 AVC Video 32900 kbps 1080p / 23,976 fps / 16:9 / High Profile 4.1

    AUDIO:

    Codec Language Bitrate Description
    ----- -------- ------- -----------
    DTS-HD Master Audio English 5337 kbps 7.1 / 48 kHz / 5337 kbps / 24-bit (DTS Core: 5.1-ES / 48 kHz / 1509 kbps / 24-bit)
    Dolby Digital Audio French 448 kbps 5.1 / 48 kHz / 448 kbps
    Dolby Digital Audio Portuguese 448 kbps 5.1 / 48 kHz / 448 kbps
    Dolby Digital Audio Spanish 448 kbps 5.1 / 48 kHz / 448 kbps
    Dolby Digital Audio English 224 kbps 2.0 / 48 kHz / 224 kbps
    Dolby Digital Audio English 224 kbps 2.0 / 48 kHz / 224 kbps

    SUBTITLES:

    Codec Language Bitrate Description
    ----- -------- ------- -----------
    Presentation Graphics English 0,998 kbps
    Presentation Graphics English 22,992 kbps
    Presentation Graphics English 61,603 kbps
    Presentation Graphics French 1,080 kbps
    Presentation Graphics Portuguese 15,678 kbps
    Presentation Graphics Spanish 16,179 kbps

    FILES:

    Name Time In Length Size Total Bitrate
    ---- ------- ------ ---- -------------
    00800.M2TS 0:00:00.000 2:18:05.277 43 833 200 640 42 324

    X-Men: Days of Future Past 2014 1080p EUR Blu-ray AVC DTS-HD MA 7.1-koletov

    Disc Title: X-Men_Days of Future Past
    Disc Size: 48.133.787.594 bytes
    Protection: AACS
    BD-Java: Yes
    BDInfo: 0.5.8

    PLAYLIST REPORT:

    Name: 00800.MPLS
    Length: 2:11:35.345 (h:m:s.ms)
    Size: 37.422.249.984 bytes
    Total Bitrate: 37,92 Mbps

    VIDEO:

    Codec Bitrate Description
    ----- ------- -----------
    MPEG-4 AVC Video 23034 kbps 1080p / 23,976 fps / 16:9 / High Profile 4.1

    AUDIO:

    Codec Language Bitrate Description
    ----- -------- ------- -----------
    DTS-HD Master Audio English 5490 kbps 7.1 / 48 kHz / 5490 kbps / 24-bit (DTS Core: 5.1-ES / 48 kHz / 1509 kbps / 24-bit)
    DTS Audio French 768 kbps 5.1 / 48 kHz / 768 kbps / 24-bit
    DTS Audio Spanish 768 kbps 5.1 / 48 kHz / 768 kbps / 24-bit
    DTS Audio German 768 kbps 5.1 / 48 kHz / 768 kbps / 24-bit
    DTS Audio Italian 768 kbps 5.1 / 48 kHz / 768 kbps / 24-bit
    Dolby Digital Audio Czech 448 kbps 5.1 / 48 kHz / 448 kbps
    Dolby Digital Audio Hindi 448 kbps 5.1 / 48 kHz / 448 kbps
    Dolby Digital Audio Urdu 448 kbps 5.1 / 48 kHz / 448 kbps
    Dolby Digital Audio Hungarian 448 kbps 5.1 / 48 kHz / 448 kbps
    Dolby Digital Audio Polish 448 kbps 5.1 / 48 kHz / 448 kbps
    Dolby Digital Audio Tamil 448 kbps 5.1 / 48 kHz / 448 kbps
    Dolby Digital Audio Telugu 448 kbps 5.1 / 48 kHz / 448 kbps
    Dolby Digital Audio Turkish 448 kbps 5.1 / 48 kHz / 448 kbps

    SUBTITLES:

    Codec Language Bitrate Description
    ----- -------- ------- -----------
    Presentation Graphics English 25,463 kbps
    Presentation Graphics French 21,501 kbps
    Presentation Graphics Spanish 21,996 kbps
    Presentation Graphics Dutch 22,370 kbps
    Presentation Graphics German 26,133 kbps
    Presentation Graphics Italian 24,650 kbps
    Presentation Graphics Czech 22,036 kbps
    Presentation Graphics Greek 26,986 kbps
    Presentation Graphics Hebrew 18,018 kbps
    Presentation Graphics Hindi 0,321 kbps
    Presentation Graphics Hungarian 22,761 kbps
    Presentation Graphics Icelandic 24,841 kbps
    Presentation Graphics Indonesian 27,320 kbps
    Presentation Graphics Malay 30,272 kbps
    Presentation Graphics Polish 22,753 kbps
    Presentation Graphics Portuguese 26,139 kbps
    Presentation Graphics Romanian 23,214 kbps
    Presentation Graphics Slovak 21,843 kbps
    Presentation Graphics Tamil 0,476 kbps
    Presentation Graphics Telugu 0,362 kbps
    Presentation Graphics Turkish 25,904 kbps
    Presentation Graphics English 0,462 kbps
    Last edited by Galatasaray; 05-05-2015 at 09:09 AM.
    Hazerfen likes this.

 

 

Thread Information

Users Browsing this Thread

There are currently 1 users browsing this thread. (0 members and 1 guests)

Tags for this Thread

Posting Permissions

  • You may not post new threads
  • You may not post replies
  • You may not post attachments
  • You may not edit your posts
  •